<svg><defs><font horiz-adv-x="556"><font-face ascent="756" bbox="-166 -282 1036 924" cap-height="708" descent="-244" panose-1="2 11 6 3 2 2 3 2 2 4" underline-position="-50" underline-thickness="50" unicode-range="U+000D-U+FB02" x-height="474"/><missing-glyph d="M0 700h500v-700h-500v700zM420 650h-340l170-255zM450 95v510l-170-255zM420 50l-170 255-170-255h340zM50 95l170 255-170 255v-510z" horiz-adv-x="500"/><glyph d="M390 474h90v-474h-90v474zM370 643c0 18 6.5 33.5 19.5 46.5s28.5 19.5 46.5 19.5 33.5-6.5 46.5-19.5 19.5-28.5 19.5-46.5-6.5-33.5-19.5-46.5-28.5-19.5-46.5-19.5-33.5 6.5-46.5 19.5-19.5 28.5-19.5 46.5zM103 396l-101.998.00097656v78h102v106c0 63.333 12.167 110.5 36.5 141.5s66.166 46.5 125.499 46.5c10 0 20.5-.333008 31.5-1s22.833-2.66699 35.5-6l-10-80c-8.66699 3.33301-17 5.66602-25 6.99902s-16.667 2-26 2c-16.667 0-30-2.5-40-7.5s-17.833-12.167-23.5-21.5-9.33398-20.5-11.001-33.5-2.5-27.833-2.5-44.5v-109h107v-78h-108v-396h-90v396z" glyph-name="fi" unicode="&#x66;&#x69;"/><glyph d="M391 756h90v-756h-90v756zM103 396l-101.998.00097656v78h102v106c0 63.333 12.167 110.5 36.5 141.5s66.166 46.5 125.499 46.5c10 0 20.5-.333008 31.5-1s22.833-2.66699 35.5-6l-10-80c-8.66699 3.33301-17 5.66602-25 6.99902s-16.667 2-26 2c-16.667 0-30-2.5-40-7.5s-17.833-12.167-23.5-21.5-9.33398-20.5-11.001-33.5-2.5-27.833-2.5-44.5v-109h107v-78h-108v-396h-90v396z" glyph-name="fl" unicode="&#x66;&#x6c;"/><glyph d="M0 700h500v-700h-500v700zM420 650h-340l170-255zM450 95v510l-170-255zM420 50l-170 255-170-255h340zM50 95l170 255-170 255v-510z" glyph-name=".notdef" horiz-adv-x="500"/><glyph glyph-name="NULL" horiz-adv-x="0"/><glyph glyph-name="NULL" horiz-adv-x="0"/><glyph glyph-name="nonmarkingreturn" horiz-adv-x="278" unicode="&#xd;"/><glyph glyph-name="space" horiz-adv-x="278" unicode="&#x20;"/><glyph d="M185 204h-96v504h96v-504zM73 60c0 18 6.5 33.5 19.5 46.5s28.5 19.5 46.5 19.5 33.5-6.5 46.5-19.5 19.5-28.5 19.5-46.5-6.5-33.5-19.5-46.5-28.5-19.5-46.5-19.5-33.5 6.5-46.5 19.5-19.5 28.5-19.5 46.5z" glyph-name="exclam" horiz-adv-x="278" unicode="&#x21;"/><glyph d="M146 708h78v-246h-78v246zM295 708h78v-246h-78v246z" glyph-name="quotedbl" horiz-adv-x="519" unicode="&#x22;"/><glyph d="M120 204h-95v78h106l20 144h-95v78h106l28 204h79l-28-204h116l28 204h79l-28-204h95v-78h-106l-20-144h95v-78h-106l-28-204h-79l28 204h-116l-28-204h-79zM230 426l-20-144h116l20 144h-116z" glyph-name="numbersign" unicode="&#x23;"/><glyph d="M300 720c36.667 0 72.498-6.16406 107.498-18.4971s65.167-31.833 90.5-58.5l-72-70c-15.333 19.333-33.833 34.5-55.5 45.5s-45.167 16.833-70.5 17.5v-236l-2-1c28.667-8 56.167-16.833 82.5-26.5s49.5-22 69.5-37 36-33.833 48-56.5 18-51 18-85c0-30.667-5.83301-58.334-17.5-83.001s-27.334-45.834-47.001-63.501-42.667-31.5-69-41.5-53.833-16-82.5-18v-72h-54v72c-44 0-84.833 7.16699-122.5 21.5s-70.167 39.166-97.5 74.499l77 69c15.333-25.333 36-44.833 62-58.5s53-21.167 81-22.5v246c-27.333 6.66699-53.166 15.167-77.499 25.5s-46 23.5-65 39.5-34 35.333-45 58-16.5 50-16.5 82c0 28.667 5.66699 54.5 17 77.5s26.333 43 45 60 40.334 30.667 65.001 41 50.334 16.5 77.001 18.5v72h54v-72zM245.998 636.003c-32-5.33301-58-17.499-78-36.499s-30-44.5-30-76.5c0-16 3-29.833 9-41.5s14-21.834 24-30.501 21.5-16 34.5-22 26.5-11 40.5-15v222zM299.998 72.0039c16.667 2 32.168 6.00098 46.501 12.001s27 14 38 24 19.667 21.833 26 35.5 9.5 29.167 9.5 46.5-3.5 32.166-10.5 44.499-16 22.833-27 31.5-23.833 16-38.5 22-29.334 11.333-44.001 16v-232z" glyph-name="dollar" unicode="&#x24;"/><glyph d="M37 549c0 24.667 4.66699 47.667 14 69s22 40 38 56 34.667 28.667 56 38 44.333 14 69 14 47.667-4.66699 69-14 40-22 56-38 28.667-34.667 38-56 14-44.333 14-69-4.66699-47.667-14-69-22-40-38-56-34.667-28.667-56-38-44.333-14-69-14-47.667 4.66699-69 14-40 22-56 38-28.667 34.667-38 56-14 44.333-14 69zM115 549c0-28 9.5-51.5 28.5-70.5s42.5-28.5 70.5-28.5 51.5 9.5 70.5 28.5 28.5 42.5 28.5 70.5-9.5 51.5-28.5 70.5-42.5 28.5-70.5 28.5-51.5-9.5-70.5-28.5-28.5-42.5-28.5-70.5zM461 159c0 24.667 4.66699 47.667 14 69s22 40 38 56 34.667 28.667 56 38 44.333 14 69 14 47.667-4.66699 69-14 40-22 56-38 28.667-34.667 38-56 14-44.333 14-69-4.66699-47.667-14-69-22-40-38-56-34.667-28.667-56-38-44.333-14-69-14-47.667 4.66699-69 14-40 22-56 38-28.667 34.667-38 56-14 44.333-14 69zM539 159c0-28 9.5-51.5 28.5-70.5s42.5-28.5 70.5-28.5 51.5 9.5 70.5 28.5 28.5 42.5 28.5 70.5-9.5 51.5-28.5 70.5-42.5 28.5-70.5 28.5-51.5-9.5-70.5-28.5-28.5-42.5-28.5-70.5zM235-31l-60 31 445 740 60-31z" glyph-name="percent" horiz-adv-x="852" unicode="&#x25;"/><glyph d="M712 0h-129.002l-87 94c-30-36-61.833-63.667-95.5-83s-74.167-29-121.5-29c-40 0-74.667 5.83301-104 17.5s-53.5 27.167-72.5 46.5-33 41.166-42 65.499-13.5 49.5-13.5 75.5c0 24.667 4.33301 47.167 13 67.5s20.334 38.833 35.001 55.5 31.834 31.667 51.501 45 40.167 25 61.5 35c-22.667 24-42.167 48.667-58.5 74s-24.5 55.333-24.5 90c0 26.667 5.16699 50.334 15.5 71.001s24.166 38 41.499 52 37.333 24.667 60 32 46.667 11 72 11c24.667 0 48.167-3.33301 70.5-10s41.833-16.667 58.5-30 29.834-30 39.501-50 14.5-43.333 14.5-70c0-22-4.33301-42.167-13-60.5s-20-35-34-50-29.667-28.333-47-40-35-22.167-53-31.5l140-146 89 145h109l-137-212zM400.998 560c0 23.333-8 41.833-24 55.5s-36.667 20.5-62 20.5-47.333-7.16699-66-21.5-28-34.833-28-61.5c0-12 2.16699-23.333 6.5-34s10-21 17-31 14.5-19.333 22.5-28l24-25c12 6.66699 24.5 14 37.5 22s24.833 17 35.5 27 19.5 21.167 26.5 33.5 10.5 26.5 10.5 42.5zM267.998 334c-14-8-28.1689-16.6689-42.502-26.002s-27.166-19.666-38.499-30.999-20.5-24.166-27.5-38.499-10.5-30.5-10.5-48.5c0-17.333 3.66699-33.5 11-48.5s17.333-28.167 30-39.5 26.834-20.166 42.501-26.499 32.167-9.5 49.5-9.5 33.5 2.66699 48.5 8 29 12.166 42 20.499 25 17.833 36 28.5 21.167 21.667 30.5 33z" glyph-name="ampersand" horiz-adv-x="722" unicode="&#x26;"/><glyph d="M178 462h-78v246h78v-246z" glyph-name="quotesingle" horiz-adv-x="278" unicode="&#x27;"/><glyph d="M254 694c-21.333-34-40-66.668-56-98.001s-29.333-63.166-40-95.499-18.667-65.833-24-100.5-8-72-8-112c0-73.333 10.667-144.333 32-213s53.333-132.334 96-191.001l-60-40c-46 62.667-81.833 131.667-107.5 207s-38.5 154.333-38.5 237c0 76.667 12.333 153.334 37 230.001s61 148 109 214z" glyph-name="parenleft" horiz-adv-x="278" unicode="&#x28;"/><glyph d="M24-118c21.333 34 40 66.668 56 98.001s29.333 63.166 40 95.499 18.667 65.833 24 100.5 8 72 8 112c0 73.333-10.667 144.333-32 213s-53.333 132.334-96 191.001l60 40c46-62.667 81.833-131.667 107.5-207s38.5-154.333 38.5-237c0-76.667-12.333-153.334-37-230.001s-61-148-109-214z" glyph-name="parenright" horiz-adv-x="278" unicode="&#x29;"/><glyph d="M269 561l139 47 21-67-139-45 88-119-55-41-91 122-89-120-55 41 89 117-142 48 21 65 141-48v147h72v-147z" glyph-name="asterisk" horiz-adv-x="464" unicode="&#x2a;"/><glyph d="M66 342h228v228h78v-228h228v-78h-228v-228h-78v228h-228v78z" glyph-name="plus" horiz-adv-x="666" unicode="&#x2b;"/><glyph d="M130-132h-82l69 246h97z" glyph-name="comma" horiz-adv-x="278" unicode="&#x2c;"/><glyph d="M281 200h-246v84h246v-84z" glyph-name="hyphen" horiz-adv-x="316" unicode="&#x2d;"/><glyph d="M139-6c-18 0-33.5 6.5-46.5 19.5s-19.5 28.5-19.5 46.5 6.5 33.5 19.5 46.5 28.5 19.5 46.5 19.5 33.5-6.5 46.5-19.5 19.5-28.5 19.5-46.5-6.5-33.5-19.5-46.5-28.5-19.5-46.5-19.5z" glyph-name="period" horiz-adv-x="278" unicode="&#x2e;"/><glyph d="M70-44l-70 26 320 770 69-26z" glyph-name="slash" horiz-adv-x="389" unicode="&#x2f;"/><glyph d="M34 354c0 26 1.33301 53 4 81s7.5 55.5 14.5 82.5 16.333 52.833 28 77.5 26.667 46.167 45 64.5 40 33 65 44 54.167 16.5 87.5 16.5 62.5-5.5 87.5-16.5 46.667-25.667 65-44 33.333-39.833 45-64.5 21-50.5 28-77.5 11.833-54.5 14.5-82.5 4-55 4-81c0-37.333-3.33301-77.333-10-120s-19-82.334-37-119.001-42.833-67-74.5-91-72.5-36-122.5-36-90.833 12-122.5 36-56.5 54.333-74.5 91-30.333 76.334-37 119.001-10 82.667-10 120zM130 354c0-23.333 1.50195-51 4.50195-83s9.5-62.833 19.5-92.5 24.833-54.834 44.5-75.501 46.167-31 79.5-31 59.833 10.333 79.5 31 34.5 45.834 44.5 75.501 16.5 60.5 19.5 92.5 4.5 59.667 4.5 83c0 16-.5 34.167-1.5 54.5s-3.33301 41-7 62-8.83398 41.333-15.501 61-15.5 37.334-26.5 53.001-24.5 28.167-40.5 37.5-35 14-57 14-41-4.66699-57-14-29.5-21.833-40.5-37.5-19.833-33.334-26.5-53.001-11.834-40-15.501-61-6-41.667-7-62-1.5-38.5-1.5-54.5z" glyph-name="zero" unicode="&#x30;"/><glyph d="M270 598l-130-120-56 67 197 163h85v-708h-96v598z" glyph-name="one" unicode="&#x31;"/><glyph d="M46 102l284.003 281.998c10 9.33301 19.667 19.5 29 30.5s17.666 22.5 24.999 34.5 13.166 24.667 17.499 38 6.5 27.333 6.5 42c0 17.333-3.16699 33-9.5 47s-15 25.833-26 35.5-24 17.167-39 22.5-30.833 8-47.5 8c-34.667 0-63.334-9.66699-86.001-29s-37-46-43-80l-104 9c4.66699 31.333 13.834 58.5 27.501 81.5s30.667 42.167 51 57.5 43.666 26.666 69.999 33.999 54.833 11 85.5 11 59.5-4.16699 86.5-12.5 50.667-20.666 71-36.999 36.333-36.666 48-60.999 17.5-52.833 17.5-85.5c0-23.333-3.5-45.166-10.5-65.499s-16.167-39.5-27.5-57.5-24.333-35-39-51-30-31.667-46-47l-233-225h356v-84h-464v102z" glyph-name="two" unicode="&#x32;"/><glyph d="M147 173c11.333-34 26.5-59.334 45.5-76.001s47.167-25 84.5-25c18.667 0 36.167 3.16699 52.5 9.5s30.833 15 43.5 26 22.667 24.333 30 40 11 33.167 11 52.5c0 29.333-6.16699 52.833-18.5 70.5s-28.166 31-47.499 40-40.666 14.833-63.999 17.5-46.333 4-69 4v84c36.667 0 66.667 2.5 90 7.5s41.666 12.167 54.999 21.5 22.666 21 27.999 35 8 29.667 8 47c0 38-11.333 66.667-34 86s-51 29-85 29c-26 0-49.5-7.5-70.5-22.5s-36.833-34.833-47.5-59.5l-98 33c18.667 45.333 47.167 78.833 85.5 100.5s81.166 32.5 128.499 32.5c28.667 0 56.167-3.83301 82.5-11.5s49.5-19.5 69.5-35.5 35.833-36.167 47.5-60.5 17.5-52.833 17.5-85.5c0-37.333-11.167-70.666-33.5-99.999s-51.5-49.333-87.5-60v-2c22-4 41.667-11.333 59-22s32-24 44-40 21-33.833 27-53.5 9-40.5 9-62.5c0-34-6.5-63.833-19.5-89.5s-30.333-47-52-64-46.667-29.833-75-38.5-58.166-13-89.499-13c-54 0-101.5 12.333-142.5 37s-69.5 63.667-85.5 117z" glyph-name="three" unicode="&#x33;"/><glyph d="M336 156h-302v98l282 454h116v-468h100v-84h-100v-156h-96v156zM336 594h-2l-216-354h218v354z" glyph-name="four" unicode="&#x34;"/><glyph d="M471 618l-286.997.00292969-3-177c4.66699 2 11.334 4 20.001 6s17.5 3.66699 26.5 5 17.833 2.33301 26.5 3 16 1 22 1c33.333 0 63.5-5.66699 90.5-17s50.167-27.333 69.5-48 34.166-45.334 44.499-74.001 15.5-60.334 15.5-95.001c0-35.333-6.5-67.333-19.5-96s-30.833-53.334-53.5-74.001-49-36.5-79-47.5-62.333-16.5-97-16.5c-48 0-91.333 12.333-130 37s-66.334 60-83.001 106l97 33c12.667-32.667 29.667-56.167 51-70.5s48-21.5 80-21.5c18.667 0 36.5 3.33301 53.5 10s31.667 16.167 44 28.5 22.166 27.5 29.499 45.5 11 38.333 11 61c0 52-15.833 90.833-47.5 116.5s-72.834 38.5-123.501 38.5c-18 0-40.833-3.16699-68.5-9.5s-53.5-15.5-77.5-27.5l8 373h380v-90z" glyph-name="five" unicode="&#x35;"/><glyph d="M220 434l3.99805-.00097656c22 10.667 48 16 78 16 25.333 0 51-4.33301 77-13s49.5-22.167 70.5-40.5 38.167-41.666 51.5-69.999 20-61.833 20-100.5c0-39.333-6.5-73.833-19.5-103.5s-30.5-54.5-52.5-74.5-47.667-35-77-45-60.666-15-93.999-15-64.666 5.33301-93.999 16-55 26-77 46-39.5 44-52.5 72-19.5 59.333-19.5 94c0 22 1.66699 42 5 60s8.16602 35.167 14.499 51.5 13.833 32.333 22.5 48 18.334 32.167 29.001 49.5l179 283h113zM130.998 218.999c0-21.333 3.5-41 10.5-59s17-33.5 30-46.5 28.5-23.167 46.5-30.5 38-11 60-11 42 3.66699 60 11 33.5 17.5 46.5 30.5 23 28.5 30 46.5 10.5 37.667 10.5 59-3.5 41-10.5 59-17 33.5-30 46.5-28.5 23.167-46.5 30.5-38 11-60 11-42-3.66699-60-11-33.5-17.5-46.5-30.5-23-28.5-30-46.5-10.5-37.667-10.5-59z" glyph-name="six" unicode="&#x36;"/><glyph d="M384 624h-342v84h445v-82l-282-626h-108z" glyph-name="seven" unicode="&#x37;"/><glyph d="M278-12c-32 0-62.1689 4.83301-90.502 14.5s-52.833 23.834-73.5 42.501-37 41.334-49 68.001-18 56.667-18 90c0 22 3.5 42.333 10.5 61s16.5 35.5 28.5 50.5 26.167 27.667 42.5 38 34.166 18.166 53.499 23.499v3c-13.333 3.33301-26.666 9.33301-39.999 18s-25.166 19.667-35.499 33-18.833 29.5-25.5 48.5-10 40.833-10 65.5c0 26.667 5.5 50.834 16.5 72.501s26 40.167 45 55.5 41 27.166 66 35.499 51.5 12.5 79.5 12.5 54.5-4.16699 79.5-12.5 47-20.166 66-35.499 34-33.833 45-55.5 16.5-45.834 16.5-72.501c0-24.667-3.33301-46.5-10-65.5s-15.167-35.167-25.5-48.5-22.166-24.333-35.499-33-26.666-14.667-39.999-18v-3c19.333-5.33301 37.166-13.166 53.499-23.499s30.5-23 42.5-38 21.5-31.833 28.5-50.5 10.5-39 10.5-61c0-33.333-6-63.333-18-90s-28.333-49.334-49-68.001-45.167-32.834-73.5-42.501-58.5-14.5-90.5-14.5zM166.998 530c0-14 2.49902-27.666 7.49902-40.999s12.167-25.166 21.5-35.499 20.833-18.833 34.5-25.5 29.5-10 47.5-10c18.667 0 34.834 3.16699 48.501 9.5s25.167 14.666 34.5 24.999 16.333 22.166 21 35.499 7 27.333 7 42c0 32.667-10.167 59.5-30.5 80.5s-47.166 31.5-80.499 31.5c-30.667 0-56.834-10.333-78.501-31s-32.5-47.667-32.5-81zM277.997 72.001c40 0 72.5 12.168 97.5 36.501s37.5 55.833 37.5 94.5c0 21.333-3.5 40.166-10.5 56.499s-16.667 30-29 41-26.666 19.333-42.999 25-33.833 8.5-52.5 8.5c-39.333-.666992-71.666-13.167-96.999-37.5s-38-55.5-38-93.5c0-20.667 3.66699-39.167 11-55.5s17.166-30 29.499-41 26.666-19.5 42.999-25.5 33.5-9 51.5-9z" glyph-name="eight" unicode="&#x38;"/><glyph d="M336 274h-3.99805c-22-10.667-48-16-78-16-25.333 0-51 4.33301-77 13s-49.5 22.167-70.5 40.5-38.167 41.666-51.5 69.999-20 61.833-20 100.5 6.5 72.834 19.5 102.501 30.5 54.5 52.5 74.5 47.667 35.167 77 45.5 60.666 15.5 93.999 15.5 64.666-5.33301 93.999-16 55-26 77-46 39.5-44 52.5-72 19.5-59.333 19.5-94c0-22-1.66699-42-5-60s-8.16602-35.167-14.499-51.5-13.833-32.5-22.5-48.5-18.334-32.333-29.001-49l-179-283h-113zM425.002 489c0 21.333-3.5 41-10.5 59s-17 33.5-30 46.5-28.5 23.167-46.5 30.5-38 11-60 11-42-3.66699-60-11-33.5-17.5-46.5-30.5-23-28.5-30-46.5-10.5-37.667-10.5-59 3.5-41 10.5-59 17-33.5 30-46.5 28.5-23.167 46.5-30.5 38-11 60-11 42 3.66699 60 11 33.5 17.5 46.5 30.5 23 28.5 30 46.5 10.5 37.667 10.5 59z" glyph-name="nine" unicode="&#x39;"/><glyph d="M139 348c-18 0-33.5 6.5-46.5 19.5s-19.5 28.5-19.5 46.5 6.5 33.5 19.5 46.5 28.5 19.5 46.5 19.5 33.5-6.5 46.5-19.5 19.5-28.5 19.5-46.5-6.5-33.5-19.5-46.5-28.5-19.5-46.5-19.5zM73 60c0 18 6.5 33.5 19.5 46.5s28.5 19.5 46.5 19.5 33.5-6.5 46.5-19.5 19.5-28.5 19.5-46.5-6.5-33.5-19.5-46.5-28.5-19.5-46.5-19.5-33.5 6.5-46.5 19.5-19.5 28.5-19.5 46.5z" glyph-name="colon" horiz-adv-x="278" unicode="&#x3a;"/><glyph d="M130-132h-82l69 246h97zM73 413c0 18 6.5 33.5 19.5 46.5s28.5 19.5 46.5 19.5 33.5-6.5 46.5-19.5 19.5-28.5 19.5-46.5-6.5-33.5-19.5-46.5-28.5-19.5-46.5-19.5-33.5 6.5-46.5 19.5-19.5 28.5-19.5 46.5z" glyph-name="semicolon" horiz-adv-x="278" unicode="&#x3b;"/><glyph d="M600 43l-534 219v82l534 220v-79l-452-182 452-182v-78z" glyph-name="less" horiz-adv-x="666" unicode="&#x3c;"/><glyph d="M600 420v-78h-534v78h534zM600 263v-78h-534v78h534z" glyph-name="equal" horiz-adv-x="666" unicode="&#x3d;"/><glyph d="M66 563l534-219v-82l-534-220v79l452 182-452 182v78z" glyph-name="greater" horiz-adv-x="666" unicode="&#x3e;"/><glyph d="M210 198l-.00488281 61.002c0 18 1.33301 33 4 45s6.66699 22.833 12 32.5 12.5 19 21.5 28l33.5 32.5 32 30.5c10.667 10.333 20.334 21 29.001 32s15.834 22.667 21.501 35 8.5 26.166 8.5 41.499-2.83301 29.5-8.5 42.5-13.167 24.167-22.5 33.5-20.5 16.666-33.5 21.999-26.833 8-41.5 8c-32.667 0-59.167-10.333-79.5-31s-32.5-47.667-36.5-81l-102 10c8.66699 58 32.834 103.5 72.501 136.5s88.834 49.5 147.501 49.5c28 0 54.167-4.16699 78.5-12.5s45.5-20.333 63.5-36 32.167-35 42.5-58 15.5-49.167 15.5-78.5c0-25.333-3.66699-48.333-11-69s-17.666-37.667-30.999-51l-70-71c-10-10-18.167-18.667-24.5-26s-11.5-14.833-15.5-22.5-6.66699-16-8-25-2-20.5-2-34.5v-44h-96zM190.995 60.002c0 18 6.5 33.5 19.5 46.5s28.5 19.5 46.5 19.5 33.5-6.5 46.5-19.5 19.5-28.5 19.5-46.5-6.5-33.5-19.5-46.5-28.5-19.5-46.5-19.5-33.5 6.5-46.5 19.5-19.5 28.5-19.5 46.5z" glyph-name="question" horiz-adv-x="500" unicode="&#x3f;"/><glyph d="M422 485c-23.333 0-44.002-5.16699-62.002-15.5s-33.167-24.333-45.5-42-21.666-37.667-27.999-60-9.5-45.5-9.5-69.5c0-24.667 5.5-44.167 16.5-58.5s29.167-21.5 54.5-21.5c20 0 38.5 5.83301 55.5 17.5s31.5 26.167 43.5 43.5 21.333 36.5 28 57.5 10 41.167 10 60.5c0 23.333-5.16699 43.833-15.5 61.5s-26.166 26.5-47.499 26.5zM530.998 267c-3.33301-11.333-5-19.666-5-24.999 0-16 9.66699-24 29-24 14 0 28.333 5.16699 43 15.5s27.834 24.5 39.501 42.5 21.334 38.833 29.001 62.5 11.5 48.834 11.5 75.501c0 39.333-7 74.166-21 104.499s-33 56-57 77-51.833 37-83.5 48-65.167 16.5-100.5 16.5c-42.667 0-82-8-118-24s-67-37.833-93-65.5-46.333-60.167-61-97.5-22-77.666-22-120.999c0-44 7.66699-84.667 23-122s36.5-69.5 63.5-96.5 58.667-48 95-63 75.5-22.5 117.5-22.5c48 0 92.833 8.66699 134.5 26s74.5 42.333 98.5 75h79c-14-25.333-32.167-48.333-54.5-69s-47.5-38.167-75.5-52.5-57.667-25.5-89-33.5-63-12-95-12c-52.667 0-101.834 9.66699-147.501 29s-85.334 45.833-119.001 79.5-60.167 73.334-79.5 119.001-29 94.5-29 146.5c0 51.333 9.83301 99.5 29.5 144.5s46.334 84.167 80.001 117.5 73 59.666 118 78.999 92.833 29 143.5 29c46.667 0 90.667-7.66699 132-23s77.5-36.5 108.5-63.5 55.5-59 73.5-96 27-77.5 27-121.5c0-42.667-7.83301-81.334-23.5-116.001s-35.334-64.334-59.001-89.001-49.167-43.667-76.5-57-52.666-20-75.999-20c-17.333 0-32 5.5-44 16.5s-18.333 26.833-19 47.5h-4c-15.333-16-33.666-30.667-54.999-44s-44.333-20-69-20c-21.333 0-40.5 4.16699-57.5 12.5s-31.333 19.5-43 33.5-20.667 30.5-27 49.5-9.5 39.5-9.5 61.5c0 32.667 5.33301 65 16 97s25.667 60.5 45 85.5 42.833 45.167 70.5 60.5 58.5 23 92.5 23c23.333 0 44.666-5.83301 63.999-17.5s33.666-31.167 42.999-58.5h2l16 57h73z" glyph-name="at" horiz-adv-x="800" unicode="&#x40;"/><glyph d="M313 708h87l303-708h-112l-71 175h-337l-70-175h-112zM485 259l-132 325h-2l-134-325h268z" glyph-name="A" horiz-adv-x="704" unicode="&#x41;"/><glyph d="M91 708l245.999.00195312c30.667 0 59.167-3.66699 85.5-11s49-18.166 68-32.499 34-32.666 45-54.999 16.5-48.5 16.5-78.5c0-40.667-11.333-73.834-34-99.501s-52-44.5-88-56.5v-2c21.333-1.33301 41.333-6.83301 60-16.5s34.834-22.334 48.501-38.001 24.5-33.834 32.5-54.501 12-43 12-67c0-32-6.5-60.167-19.5-84.5s-30.833-44.833-53.5-61.5-49-29.334-79-38.001-62.333-13-97-13h-243v708zM186.999 414.002h131c18 0 35 1.83301 51 5.5s30 9.83398 42 18.501 21.5 19.667 28.5 33 10.5 29.666 10.5 48.999c0 28-9 52.333-27 73s-46.333 31-85 31h-151v-210zM186.999 84.002l140.999.00097656c14.667 0 30.834 1.5 48.501 4.5s34.167 9 49.5 18 28.333 21.167 39 36.5 16 35.666 16 60.999c0 42-13.667 73.5-41 94.5s-64.333 31.5-111 31.5h-142v-246z" glyph-name="B" horiz-adv-x="630" unicode="&#x42;"/><glyph d="M584 555c-20 26-45.333 45.9961-76 59.9961s-62.334 21-95.001 21c-40 0-76.167-7.5-108.5-22.5s-60-35.5-83-61.5-40.833-56.5-53.5-91.5-19-72.5-19-112.5c0-37.333 6-72.666 18-105.999s29.333-62.666 52-87.999 50.334-45.333 83.001-60 69.667-22 111-22c40.667 0 76.334 8.33301 107.001 25s56.667 40 78 70l81-61c-5.33301-7.33301-14.666-17.833-27.999-31.5s-31-27.334-53-41.001-48.5-25.667-79.5-36-66.833-15.5-107.5-15.5c-56 0-106.5 10.667-151.5 32s-83.333 49.333-115 84-55.834 73.834-72.501 117.501-25 87.834-25 132.501c0 54.667 9 105.167 27 151.5s43.167 86.333 75.5 120 71.166 59.834 116.499 78.501 95.333 28 150 28c46.667 0 92.5-9 137.5-27s81.833-45.667 110.5-83z" glyph-name="C" horiz-adv-x="704" unicode="&#x43;"/><glyph d="M75 708l246.998-.00097656c50 0 93.833-5.66699 131.5-17s70.334-26.5 98.001-45.5 50.667-40.833 69-65.5 32.833-50 43.5-76 18.334-52 23.001-78 7-50 7-72c0-45.333-8.33301-89.166-25-131.499s-41.334-80-74.001-113-73.167-59.5-121.5-79.5-104.166-30-167.499-30h-231v708zM170.998 89.999l121 .00097656c40.667 0 79.167 5.5 115.5 16.5s68.166 27.5 95.499 49.5 49 49.5 65 82.5 24 71.5 24 115.5c0 22.667-3.66699 49.167-11 79.5s-21.166 59.166-41.499 86.499-48.5 50.5-84.5 69.5-82.667 28.5-140 28.5h-144v-528z" glyph-name="D" horiz-adv-x="741" unicode="&#x44;"/><glyph d="M91 708h457v-90h-361v-211h336v-90h-336v-227h379v-90h-475v708z" glyph-name="E" horiz-adv-x="611" unicode="&#x45;"/><glyph d="M91 708h445v-90h-349v-222h325v-90h-325v-306h-96v708z" glyph-name="F" horiz-adv-x="574" unicode="&#x46;"/><glyph d="M694 396l.00488281-349.001c-17.333-10.667-37-20-59-28s-44.833-14.833-68.5-20.5-47.667-9.83398-72-12.501-47.166-4-68.499-4c-60 0-113.5 10-160.5 30s-86.667 47-119 81-57 73.5-74 118.5-25.5 92.5-25.5 142.5c0 52.667 9.16699 101.667 27.5 147s43.666 84.666 75.999 117.999 71.166 59.5 116.499 78.5 95 28.5 149 28.5c65.333 0 118.666-8.16699 159.999-24.5s76-38.833 104-67.5l-68-73c-29.333 28-60.333 47.5-93 58.5s-67 16.5-103 16.5c-40.667 0-77.334-7.5-110.001-22.5s-60.667-35.167-84-60.5-41.333-55.166-54-89.499-19-70.833-19-109.5c0-40 7-77.167 21-111.5s33.333-64.166 58-89.499 53.667-45.166 87-59.499 69.666-21.5 108.999-21.5c34 0 66.167 3.16699 96.5 9.5s56.166 15.5 77.499 27.5v197h-157v90h253z" glyph-name="G" horiz-adv-x="778" unicode="&#x47;"/><glyph d="M91 708h96v-294h367v294h96v-708h-96v324h-367v-324h-96v708z" glyph-name="H" horiz-adv-x="741" unicode="&#x48;"/><glyph d="M91 708h96v-708h-96v708z" glyph-name="I" horiz-adv-x="278" unicode="&#x49;"/><glyph d="M312 708l95.998-.00195312v-506c0-44.667-7-81.167-21-109.5s-31.5-50.666-52.5-66.999-43.5-27.666-67.5-33.999-46-9.5-66-9.5c-50 0-92.167 12.833-126.5 38.5s-56.166 64.5-65.499 116.5l94 21c5.33301-26.667 16.333-47.667 33-63s38.334-23 65.001-23c24 0 43.167 4.66699 57.5 14s25.5 21.5 33.5 36.5 13.333 32.167 16 51.5 4 39 4 59v475z" glyph-name="J" horiz-adv-x="482" unicode="&#x4a;"/><glyph d="M91 708h96v-306h8l313 306h134l-342-327 365-381h-140l-330 354h-8v-354h-96v708z" glyph-name="K" horiz-adv-x="648" unicode="&#x4b;"/><glyph d="M91 708h96v-618h325v-90h-421v708z" glyph-name="L" horiz-adv-x="519" unicode="&#x4c;"/><glyph d="M84 708h143l225-536h4l223 536h143v-708h-96v582h-2l-239-582h-64l-239 582h-2v-582h-96v708z" glyph-name="M" horiz-adv-x="906" unicode="&#x4d;"/><glyph d="M91 708h126l390-582h2v582h96v-708h-122l-394 582h-2v-582h-96v708z" glyph-name="N" horiz-adv-x="796" unicode="&#x4e;"/><glyph d="M416-18c-54 0-103.667 9.5-149 28.5s-84.166 45.167-116.499 78.5-57.666 72.666-75.999 117.999-27.5 94.333-27.5 147 9.16699 101.667 27.5 147 43.666 84.666 75.999 117.999 71.166 59.5 116.499 78.5 95 28.5 149 28.5 103.667-9.5 149-28.5 84.166-45.167 116.499-78.5 57.666-72.666 75.999-117.999 27.5-94.333 27.5-147-9.16699-101.667-27.5-147-43.666-84.666-75.999-117.999-71.166-59.5-116.499-78.5-95-28.5-149-28.5zM416 72c40.667 0 77.334 7.5 110.001 22.5s60.667 35.167 84 60.5 41.333 55.166 54 89.499 19 70.833 19 109.5-6.33301 75.167-19 109.5-30.667 64.166-54 89.499-51.333 45.5-84 60.5-69.334 22.5-110.001 22.5-77.334-7.5-110.001-22.5-60.667-35.167-84-60.5-41.333-55.166-54-89.499-19-70.833-19-109.5 6.33301-75.167 19-109.5 30.667-64.166 54-89.499 51.333-45.5 84-60.5 69.334-22.5 110.001-22.5z" glyph-name="O" horiz-adv-x="832" unicode="&#x4f;"/><glyph d="M91 708h249c45.333 0 82.666-6.16699 111.999-18.5s52.5-28 69.5-47 28.833-40.333 35.5-64 10-46.5 10-68.5-3.33301-44.833-10-68.5-18.5-45-35.5-64-40.167-34.667-69.5-47-66.666-18.5-111.999-18.5h-153v-312h-96v708zM187 396h126c18.667 0 37.167 1.5 55.5 4.5s34.666 8.5 48.999 16.5 25.833 19.5 34.5 34.5 13 34.5 13 58.5-4.33301 43.5-13 58.5-20.167 26.5-34.5 34.5-30.666 13.5-48.999 16.5-36.833 4.5-55.5 4.5h-126v-228z" glyph-name="P" horiz-adv-x="593" unicode="&#x50;"/><glyph d="M822 0h-408.002c-50 0-97.333 9-142 27s-83.667 43-117 75-59.666 70.167-78.999 114.5-29 92.833-29 145.5c0 52 9.33301 100.167 28 144.5s44.5 82.833 77.5 115.5 71.667 58.167 116 76.5 92.5 27.5 144.5 27.5c50 0 96.833-9 140.5-27s81.834-42.833 114.501-74.5 58.5-69 77.5-112 28.5-89.833 28.5-140.5c0-30-3.5-59.5-10.5-88.5s-17.333-56.167-31-81.5-30.667-48-51-68-43.5-36-69.5-48v-2h210v-84zM409.998 90c38.667 0 74.166 7.16699 106.499 21.5s60 34 83 59 40.833 54.5 53.5 88.5 19 70.333 19 109c0 37.333-6.5 72.333-19.5 105s-31.167 61-54.5 85-51 43-83 57-67 21-105 21c-37.333 0-71.833-7-103.5-21s-59.167-33-82.5-57-41.666-52.167-54.999-84.5-20-66.833-20-103.5c0-38.667 6.33301-75 19-109s30.5-63.667 53.5-89 50.5-45.333 82.5-60 67.333-22 106-22z" glyph-name="Q" horiz-adv-x="832" unicode="&#x51;"/><glyph d="M91 708l249.002.00097656c45.333 0 82.666-6.16699 111.999-18.5s52.5-28 69.5-47 28.833-40.333 35.5-64 10-46.5 10-68.5c0-22.667-4-44.5-12-65.5s-19.5-40-34.5-57-33.333-31.333-55-43-45.834-18.834-72.501-21.501l201-323h-120l-180 312h-107v-312h-96v708zM187.002 396.001h126c18.667 0 37.167 1.5 55.5 4.5s34.666 8.5 48.999 16.5 25.833 19.5 34.5 34.5 13 34.5 13 58.5-4.33301 43.5-13 58.5-20.167 26.5-34.5 34.5-30.666 13.5-48.999 16.5-36.833 4.5-55.5 4.5h-126v-228z" glyph-name="R" horiz-adv-x="611" unicode="&#x52;"/><glyph d="M112 148c17.333-26 39.501-45.1641 66.501-57.4971s54.833-18.5 83.5-18.5c16 0 32.333 2.5 49 7.5s31.834 12.5 45.501 22.5 24.834 22.333 33.501 37 13 31.667 13 51c0 27.333-8.66699 48.166-26 62.499s-38.833 26.333-64.5 36-53.667 19-84 28-58.333 21.5-84 37.5-47.167 37.5-64.5 64.5-26 63.5-26 109.5c0 20.667 4.5 42.667 13.5 66s23.167 44.666 42.5 63.999 44.166 35.5 74.499 48.5 66.833 19.5 109.5 19.5c38.667 0 75.667-5.33301 111-16s66.333-32.334 93-65.001l-78-71c-12 18.667-29 33.667-51 45s-47 17-75 17c-26.667 0-48.834-3.5-66.501-10.5s-31.834-16-42.501-27-18.167-22.833-22.5-35.5-6.5-24.334-6.5-35.001c0-30 8.66699-53 26-69s38.833-29 64.5-39 53.667-19 84-27 58.333-19.167 84-33.5 47.167-33.666 64.5-57.999 26-57.833 26-100.5c0-34-6.5-64.667-19.5-92s-30.5-50.333-52.5-69-48-33-78-43-62-15-96-15c-45.333 0-88.333 8-129 24s-73 40.667-97 74z" glyph-name="S" unicode="&#x53;"/><glyph d="M239 618h-228v90h552v-90h-228v-618h-96v618z" glyph-name="T" horiz-adv-x="574" unicode="&#x54;"/><glyph d="M174 708v-434c0-22 3-44.833 9-68.5s16-45.5 30-65.5 32.333-36.333 55-49 50.667-19 84-19 61.333 6.33301 84 19 41 29 55 49 24 41.833 30 65.5 9 46.5 9 68.5v434h96v-449c0-41.333-7-78.833-21-112.5s-33.333-62.834-58-87.501-53.667-43.667-87-57-69.333-20-108-20-74.667 6.66699-108 20-62.333 32.333-87 57-44 53.834-58 87.501-21 71.167-21 112.5v449h96z" glyph-name="U" horiz-adv-x="704" unicode="&#x55;"/><glyph d="M-6 708h111l208-576h2l216 576h105l-279-708h-90z" glyph-name="V" horiz-adv-x="630" unicode="&#x56;"/><glyph d="M1 708h100l156-566h2l167 566h110l167-566h2l156 566h100l-206-708h-101l-172 578h-2l-171-578h-101z" glyph-name="W" horiz-adv-x="962" unicode="&#x57;"/><glyph d="M255 372l-238 336h123l184-272 182 272h120l-236-335 260-373h-126l-203 307-204-307h-119z" glyph-name="X" horiz-adv-x="648" unicode="&#x58;"/><glyph d="M258 302l-268 406h123l193-311 199 311h117l-268-406v-302h-96v302z" glyph-name="Y" horiz-adv-x="612" unicode="&#x59;"/><glyph d="M32 90l403 528h-391v90h511v-90l-401-528h407v-90h-529v90z" glyph-name="Z" horiz-adv-x="593" unicode="&#x5a;"/><glyph d="M72 732h174v-66h-90v-756h90v-66h-174v888z" glyph-name="bracketleft" horiz-adv-x="278" unicode="&#x5b;"/><glyph d="M0 726l69 26 320-770-70-26z" glyph-name="backslash" horiz-adv-x="389" unicode="&#x5c;"/><glyph d="M32-90h90v756h-90v66h174v-888h-174v66z" glyph-name="bracketright" horiz-adv-x="278" unicode="&#x5d;"/><glyph d="M293 708h80l213-432h-83l-170 353-170-353h-83z" glyph-name="asciicircum" horiz-adv-x="666" unicode="&#x5e;"/><glyph d="M0-75h500v-50h-500v50z" glyph-name="underscore" horiz-adv-x="500" unicode="&#x5f;"/><glyph d="M186 564h-83l-149 144h128z" glyph-name="grave" horiz-adv-x="240" unicode="&#x60;"/><glyph d="M70 416c25.333 23.333 54.667 40.833 88 52.5s66.666 17.5 99.999 17.5c34.667 0 64.5-4.33301 89.5-13s45.5-20.334 61.5-35.001 27.833-31.5 35.5-50.5 11.5-38.833 11.5-59.5v-242c0-16.667.333008-32 1-46s1.66699-27.333 3-40h-80c-2 24-3 48-3 72h-2c-20-30.667-43.667-52.334-71-65.001s-59-19-95-19c-22 0-43 3-63 9s-37.5 15-52.5 27-26.833 26.833-35.5 44.5-13 38.167-13 61.5c0 30.667 6.83301 56.334 20.5 77.001s32.334 37.5 56.001 50.5 51.334 22.333 83.001 28 65.5 8.5 101.5 8.5h66v20c0 12-2.33301 24-7 36s-11.667 22.833-21 32.5-21 17.334-35 23.001-30.667 8.5-50 8.5c-17.333 0-32.5-1.66699-45.5-5s-24.833-7.5-35.5-12.5-20.334-10.833-29.001-17.5l-25-19zM324.001 228c-21.333 0-43.168-1.16504-65.501-3.49805s-42.666-6.83301-60.999-13.5-33.333-16-45-28-17.5-27.333-17.5-46c0-27.333 9.16699-47 27.5-59s43.166-18 74.499-18c24.667 0 45.667 4.16699 63 12.5s31.333 19.166 42 32.499 18.334 28.166 23.001 44.499 7 32.5 7 48.5v30h-48z" glyph-name="a" horiz-adv-x="519" unicode="&#x61;"/><glyph d="M68 756l89.999-.00097656v-350h2c16 24.667 39 44.167 69 58.5s62 21.5 96 21.5c36.667 0 69.834-6.33301 99.501-19s55-30.167 76-52.5 37.167-48.666 48.5-78.999 17-63.166 17-98.499-5.66699-68-17-98-27.5-56.333-48.5-79-46.333-40.334-76-53.001-62.834-19-99.501-19c-32 0-63.167 7-93.5 21s-54.166 33.667-71.499 59h-2v-68h-90v756zM313.999 71.999c24 0 45.667 4.16699 65 12.5s35.666 19.666 48.999 33.999 23.666 31.666 30.999 51.999 11 42.5 11 66.5-3.66699 46.167-11 66.5-17.666 37.666-30.999 51.999-29.666 25.666-48.999 33.999-41 12.5-65 12.5-45.667-4.16699-65-12.5-35.666-19.666-48.999-33.999-23.666-31.666-30.999-51.999-11-42.5-11-66.5 3.66699-46.167 11-66.5 17.666-37.666 30.999-51.999 29.666-25.666 48.999-33.999 41-12.5 65-12.5z" glyph-name="b" horiz-adv-x="611" unicode="&#x62;"/><glyph d="M407 348c-16.667 17.333-34.1689 30.499-52.502 39.499s-40.166 13.5-65.499 13.5c-24.667 0-46.167-4.5-64.5-13.5s-33.666-21.333-45.999-37-21.666-33.667-27.999-54-9.5-41.5-9.5-63.5 3.66699-42.833 11-62.5 17.666-36.834 30.999-51.501 29.333-26.167 48-34.5 39.667-12.5 63-12.5c25.333 0 47 4.5 65 13.5s34.667 22.167 50 39.5l64-64c-23.333-26-50.5-44.667-81.5-56s-63.833-17-98.5-17c-36.667 0-70.167 6-100.5 18s-56.5 28.833-78.5 50.5-39 47.667-51 78-18 63.833-18 100.5 6 70.334 18 101.001 28.833 57 50.5 79 47.667 39.167 78 51.5 64.166 18.5 101.499 18.5c34.667 0 67.834-6.16699 99.501-18.5s59.167-31.166 82.5-56.499z" glyph-name="c" horiz-adv-x="482" unicode="&#x63;"/><glyph d="M543 0l-90.001.00097656v68h-2c-17.333-25.333-41.166-45-71.499-59s-61.5-21-93.5-21c-36.667 0-69.834 6.33301-99.501 19s-55 30.334-76 53.001-37.167 49-48.5 79-17 62.667-17 98 5.66699 68.166 17 98.499 27.5 56.666 48.5 78.999 46.333 39.833 76 52.5 62.834 19 99.501 19c34 0 66-7.16699 96-21.5s53-33.833 69-58.5h2v350h90v-756zM296.999 72.001c24 0 45.667 4.16699 65 12.5s35.666 19.666 48.999 33.999 23.666 31.666 30.999 51.999 11 42.5 11 66.5-3.66699 46.167-11 66.5-17.666 37.666-30.999 51.999-29.666 25.666-48.999 33.999-41 12.5-65 12.5-45.667-4.16699-65-12.5-35.666-19.666-48.999-33.999-23.666-31.666-30.999-51.999-11-42.5-11-66.5 3.66699-46.167 11-66.5 17.666-37.666 30.999-51.999 29.666-25.666 48.999-33.999 41-12.5 65-12.5z" glyph-name="d" horiz-adv-x="611" unicode="&#x64;"/><glyph d="M136 204c0-20.667 4.49902-39.4932 13.499-56.4932s20.833-31.5 35.5-43.5 31.667-21.333 51-28 39.333-10 60-10c28 0 52.333 6.5 73 19.5s39.667 30.167 57 51.5l68-52c-50-64.667-120-97-210-97-37.333 0-71.166 6.33301-101.499 19s-56 30.167-77 52.5-37.167 48.666-48.5 78.999-17 63.166-17 98.499 6.16699 68.166 18.5 98.499 29.333 56.666 51 78.999 47.5 39.833 77.5 52.5 62.667 19 98 19c42 0 77.5-7.33301 106.5-22s52.833-33.834 71.5-57.501 32.167-50.334 40.5-80.001 12.5-59.834 12.5-90.501v-32h-380zM419.999 276.007c-.666992 20-3.83301 38.3311-9.5 54.998s-14.167 31.167-25.5 43.5-25.5 22-42.5 29-36.833 10.5-59.5 10.5c-22 0-42.167-4.16699-60.5-12.5s-33.833-19.166-46.5-32.499-22.5-28.166-29.5-44.499-10.5-32.5-10.5-48.5h284z" glyph-name="e" unicode="&#x65;"/><glyph d="M103 396l-101.998.00097656v78h102v106c0 63.333 12.167 110.5 36.5 141.5s66.166 46.5 125.499 46.5c10 0 20.5-.333008 31.5-1s22.833-2.66699 35.5-6l-10-80c-8.66699 3.33301-17 5.66602-25 6.99902s-16.667 2-26 2c-16.667 0-30-2.5-40-7.5s-17.833-12.167-23.5-21.5-9.33398-20.5-11.001-33.5-2.5-27.833-2.5-44.5v-109h107v-78h-108v-396h-90v396z" glyph-name="f" horiz-adv-x="333" unicode="&#x66;"/><glyph d="M543 4c0-36-6.16406-68.834-18.4971-98.501s-29.833-55.334-52.5-77.001-50-38.5-82-50.5-67.333-18-106-18c-45.333 0-86.833 6.33301-124.5 19s-73.5 34.667-107.5 66l61 76c23.333-25.333 48.666-44.5 75.999-57.5s58.333-19.5 93-19.5c33.333 0 61 4.83301 83 14.5s39.5 22.167 52.5 37.5 22.167 32.833 27.5 52.5 8 39.5 8 59.5v70h-3c-17.333-28.667-40.833-49.834-70.5-63.501s-60.834-20.5-93.501-20.5c-34.667 0-66.834 6.16699-96.501 18.5s-55.167 29.333-76.5 51-38 47.334-50 77.001-18 61.834-18 96.501 5.66699 67.167 17 97.5 27.5 56.833 48.5 79.5 46.333 40.334 76 53.001 62.834 19 99.501 19c32 0 63.167-7 93.5-21s54.166-33.667 71.499-59h2v68h90v-470zM297.003 401.999c-24 0-45.6709-4.16699-65.0039-12.5s-35.666-19.666-48.999-33.999-23.666-31.666-30.999-51.999-11-42.5-11-66.5c0-48 14-86.5 42-115.5s66-43.5 114-43.5 86 14.5 114 43.5 42 67.5 42 115.5c0 24-3.66699 46.167-11 66.5s-17.666 37.666-30.999 51.999-29.666 25.666-48.999 33.999-41 12.5-65 12.5z" glyph-name="g" horiz-adv-x="611" unicode="&#x67;"/><glyph d="M68 756l90-.00097656v-355h2c11.333 25.333 31 45.833 59 61.5s60.333 23.5 97 23.5c22.667 0 44.5-3.5 65.5-10.5s39.333-17.833 55-32.5 28.167-33.5 37.5-56.5 14-50.167 14-81.5v-305h-90v280c0 22-3 40.833-9 56.5s-14 28.334-24 38.001-21.5 16.667-34.5 21-26.5 6.5-40.5 6.5c-18.667 0-36-3-52-9s-30-15.5-42-28.5-21.333-29.5-28-49.5-10-43.667-10-71v-244h-90v756z" glyph-name="h" unicode="&#x68;"/><glyph d="M75 474h90v-474h-90v474zM54 644c0 18 6.5 33.5 19.5 46.5s28.5 19.5 46.5 19.5 33.5-6.5 46.5-19.5 19.5-28.5 19.5-46.5-6.5-33.5-19.5-46.5-28.5-19.5-46.5-19.5-33.5 6.5-46.5 19.5-19.5 28.5-19.5 46.5z" glyph-name="i" horiz-adv-x="240" unicode="&#x69;"/><glyph d="M165 474l-.00097656-542c0-12-.833008-27.833-2.5-47.5s-7-38.667-16-57-23.333-34.166-43-47.499-47.5-20-83.5-20c-10 0-19.833.666992-29.5 2s-19.167 3.66602-28.5 6.99902l10 83c5.33301-2 11.333-3.83301 18-5.5s13-2.5 19-2.5c24.667 0 41.834 7.83301 51.501 23.5s14.5 38.5 14.5 68.5v538h90zM53.999 644c0 18 6.5 33.5 19.5 46.5s28.5 19.5 46.5 19.5 33.5-6.5 46.5-19.5 19.5-28.5 19.5-46.5-6.5-33.5-19.5-46.5-28.5-19.5-46.5-19.5-33.5 6.5-46.5 19.5-19.5 28.5-19.5 46.5z" glyph-name="j" horiz-adv-x="240" unicode="&#x6a;"/><glyph d="M68 756h90v-488l204 205h125l-221-215 240-258h-128l-220 246v-246h-90v756z" glyph-name="k" horiz-adv-x="519" unicode="&#x6b;"/><glyph d="M75 756h90v-756h-90v756z" glyph-name="l" horiz-adv-x="240" unicode="&#x6c;"/><glyph d="M68 474l83.999-.00292969v-74h2c2 6.66699 7.16699 15 15.5 25s19 19.5 32 28.5 28.333 16.667 46 23 37.167 9.5 58.5 9.5c35.333 0 65-7.33301 89-22s43.667-36.667 59-66c15.333 29.333 37 51.333 65 66s56.333 22 85 22c36.667 0 66.667-6 90-18s41.666-27.833 54.999-47.5 22.5-42 27.5-67 7.5-50.833 7.5-77.5v-276h-90v264c0 18-1.16699 35.333-3.5 52s-7.16602 31.334-14.499 44.001-17.666 22.834-30.999 30.501-31 11.5-53 11.5c-43.333 0-74.333-13.333-93-40s-28-61-28-103v-259h-90v248c0 22.667-1.16699 43.334-3.5 62.001s-7 34.834-14 48.501-17 24.334-30 32.001-30.5 11.5-52.5 11.5c-16 0-31.5-3.16699-46.5-9.5s-28.167-15.833-39.5-28.5-20.333-28.834-27-48.501-10-42.834-10-69.501v-246h-90v474z" glyph-name="m" horiz-adv-x="852" unicode="&#x6d;"/><glyph d="M68 474l90-.00097656v-73h2c11.333 25.333 31 45.833 59 61.5s60.333 23.5 97 23.5c22.667 0 44.5-3.5 65.5-10.5s39.333-17.833 55-32.5 28.167-33.5 37.5-56.5 14-50.167 14-81.5v-305h-90v280c0 22-3 40.833-9 56.5s-14 28.334-24 38.001-21.5 16.667-34.5 21-26.5 6.5-40.5 6.5c-18.667 0-36-3-52-9s-30-15.5-42-28.5-21.333-29.5-28-49.5-10-43.667-10-71v-244h-90v474z" glyph-name="n" unicode="&#x6e;"/><glyph d="M141 237c0-24 3.66699-46.167 11-66.5s17.666-37.666 30.999-51.999 29.666-25.666 48.999-33.999 41-12.5 65-12.5 45.667 4.16699 65 12.5 35.666 19.666 48.999 33.999 23.666 31.666 30.999 51.999 11 42.5 11 66.5-3.66699 46.167-11 66.5-17.666 37.666-30.999 51.999-29.666 25.666-48.999 33.999-41 12.5-65 12.5-45.667-4.16699-65-12.5-35.666-19.666-48.999-33.999-23.666-31.666-30.999-51.999-11-42.5-11-66.5zM45 237c0 34.667 6.5 67 19.5 97s30.833 56.333 53.5 79 49.334 40.5 80.001 53.5 63.667 19.5 99 19.5 68.333-6.5 99-19.5 57.334-30.833 80.001-53.5 40.5-49 53.5-79 19.5-62.333 19.5-97-6.5-67.167-19.5-97.5-30.833-56.666-53.5-78.999-49.334-40-80.001-53-63.667-19.5-99-19.5-68.333 6.5-99 19.5-57.334 30.667-80.001 53-40.5 48.666-53.5 78.999-19.5 62.833-19.5 97.5z" glyph-name="o" horiz-adv-x="594" unicode="&#x6f;"/><glyph d="M68 474l90.001-.00097656v-68h2c17.333 25.333 41.166 45 71.499 59s61.5 21 93.5 21c36.667 0 69.834-6.33301 99.501-19s55-30.334 76-53.001 37.167-49.167 48.5-79.5 17-62.833 17-97.5c0-35.333-5.66699-68.166-17-98.499s-27.5-56.666-48.5-78.999-46.333-39.833-76-52.5-62.834-19-99.501-19c-34 0-66 7.16699-96 21.5s-53 33.833-69 58.5h-2v-350h-90v756zM314.001 401.999c-24 0-45.667-4.16699-65-12.5s-35.666-19.666-48.999-33.999-23.666-31.666-30.999-51.999-11-42.5-11-66.5 3.66699-46.167 11-66.5 17.666-37.666 30.999-51.999 29.666-25.666 48.999-33.999 41-12.5 65-12.5 45.667 4.16699 65 12.5 35.666 19.666 48.999 33.999 23.666 31.666 30.999 51.999 11 42.5 11 66.5-3.66699 46.167-11 66.5-17.666 37.666-30.999 51.999-29.666 25.666-48.999 33.999-41 12.5-65 12.5z" glyph-name="p" horiz-adv-x="611" unicode="&#x70;"/><glyph d="M543-228l-89.999.00097656v296h-2c-16-24.667-39-44.167-69-58.5s-62-21.5-96-21.5c-36.667 0-69.834 6.33301-99.501 19s-55 30.167-76 52.5-37.167 48.666-48.5 78.999-17 63.166-17 98.499c0 34.667 5.66699 67.167 17 97.5s27.5 56.833 48.5 79.5 46.333 40.334 76 53.001 62.834 19 99.501 19c32 0 63.167-7 93.5-21s54.166-33.667 71.499-59h2v68h90v-702zM297.001 402.001c-24 0-45.667-4.16699-65-12.5s-35.666-19.666-48.999-33.999-23.666-31.666-30.999-51.999-11-42.5-11-66.5 3.66699-46.167 11-66.5 17.666-37.666 30.999-51.999 29.666-25.666 48.999-33.999 41-12.5 65-12.5 45.667 4.16699 65 12.5 35.666 19.666 48.999 33.999 23.666 31.666 30.999 51.999 11 42.5 11 66.5-3.66699 46.167-11 66.5-17.666 37.666-30.999 51.999-29.666 25.666-48.999 33.999-41 12.5-65 12.5z" glyph-name="q" horiz-adv-x="611" unicode="&#x71;"/><glyph d="M68 474l89.9971.00195312v-73h2c6 12.667 14 24.167 24 34.5s21.167 19.166 33.5 26.499 25.833 13.166 40.5 17.499 29.334 6.5 44.001 6.5 28-2 40-6l-4-97c-7.33301 2-14.666 3.66699-21.999 5s-14.666 2-21.999 2c-44 0-77.667-12.333-101-37s-35-63-35-115v-238h-90v474z" glyph-name="r" horiz-adv-x="370" unicode="&#x72;"/><glyph d="M320 355c-10.667 13.333-23.833 24.502-39.5 33.502s-34.834 13.5-57.501 13.5c-21.333 0-39.833-4.5-55.5-13.5s-23.5-22.167-23.5-39.5c0-14 4.5-25.333 13.5-34s19.667-15.667 32-21 25.5-9.33301 39.5-12l36-7c19.333-4.66699 37.5-10.334 54.5-17.001s31.667-15.334 44-26.001 22-23.667 29-39 10.5-34 10.5-56c0-26.667-5.66699-49.5-17-68.5s-26-34.5-44-46.5-38.5-20.667-61.5-26-46.167-8-69.5-8c-39.333 0-73.833 6-103.5 18s-56.167 34-79.5 66l68 56c14.667-14.667 31-27.667 49-39s40-17 66-17c11.333 0 22.833 1.16699 34.5 3.5s22 6 31 11 16.333 11.333 22 19 8.5 16.5 8.5 26.5c0 13.333-4.16699 24.333-12.5 33s-18.333 15.5-30 20.5-24 9-37 12-24.5 5.5-34.5 7.5c-19.333 4.66699-37.666 10-54.999 16s-32.666 14-45.999 24-24 22.667-32 38-12 34.333-12 57c0 24.667 5.16699 46.167 15.5 64.5s24 33.5 41 45.5 36.333 21 58 27 43.5 9 65.5 9c32 0 62.667-6 92-18s52.666-32 69.999-60z" glyph-name="s" horiz-adv-x="444" unicode="&#x73;"/><glyph d="M322 396l-128.999-.00097656v-215c0-13.333.333008-26.5 1-39.5s3.16699-24.667 7.5-35 11-18.666 20-24.999 22.167-9.5 39.5-9.5c10.667 0 21.667 1 33 3s21.666 5.66699 30.999 11v-82c-10.667-6-24.5-10.167-41.5-12.5s-30.167-3.5-39.5-3.5c-34.667 0-61.5 4.83301-80.5 14.5s-33 22.167-42 37.5-14.333 32.5-16 51.5-2.5 38.167-2.5 57.5v247h-104v78h104v133h90v-133h129v-78z" glyph-name="t" horiz-adv-x="370" unicode="&#x74;"/><glyph d="M488 0l-89.999.00097656v73h-2c-11.333-25.333-31-45.833-59-61.5s-60.333-23.5-97-23.5c-23.333 0-45.333 3.5-66 10.5s-38.834 17.833-54.501 32.5-28.167 33.5-37.5 56.5-14 50.167-14 81.5v305h90v-280c0-22 3-40.833 9-56.5s14-28.334 24-38.001 21.5-16.667 34.5-21 26.5-6.5 40.5-6.5c18.667 0 36 3 52 9s30 15.5 42 28.5 21.333 29.5 28 49.5 10 43.667 10 71v244h90v-474z" glyph-name="u" unicode="&#x75;"/><glyph d="M11 474h104l142-363 136 363h96l-186-474h-99z" glyph-name="v" horiz-adv-x="500" unicode="&#x76;"/><glyph d="M11 474h101l107-354h2l113 354h95l120-354h2l102 354h95l-153-474h-91l-125 354h-2l-113-354h-97z" glyph-name="w" horiz-adv-x="759" unicode="&#x77;"/><glyph d="M198 253l-168 221h116l115-168 113 168h109l-162-221 192-253h-116l-140 199-140-199h-111z" glyph-name="x" horiz-adv-x="519" unicode="&#x78;"/><glyph d="M11 474h104l141-370h2l134 370h97l-225-576c-8-20.667-16.333-39.5-25-56.5s-19-31.5-31-43.5-26.5-21.333-43.5-28-37.833-10-62.5-10c-13.333 0-26.833.833008-40.5 2.5s-26.834 5.16699-39.501 10.5l11 82c18-7.33301 36-11 54-11 14 0 25.833 1.83301 35.5 5.5s18 9 25 16 12.833 15.167 17.5 24.5 9.33398 20 14.001 32l29 75z" glyph-name="y" horiz-adv-x="500" unicode="&#x79;"/><glyph d="M35 81l269 315h-260v78h370v-80l-271-316h285v-78h-393v81z" glyph-name="z" horiz-adv-x="463" unicode="&#x7a;"/><glyph d="M304 660l-45-.00195312c-10 0-18.167-2.5-24.5-7.5s-11.5-11.667-15.5-20-6.83301-17.666-8.5-27.999-2.5-20.833-2.5-31.5v-151c.666992-23.333-2.16602-43-8.49902-59s-14.166-29.333-23.499-40-18.833-18.667-28.5-24-17.5-8.66602-23.5-9.99902v-3c6-.666992 13.833-3.33398 23.5-8.00098s19.167-12 28.5-22 17.166-23.5 23.499-40.5 9.16602-38.167 8.49902-63.5v-150c0-10 .833008-20.167 2.5-30.5s4.5-19.666 8.5-27.999 9.16699-15 15.5-20 14.5-7.5 24.5-7.5h45v-72h-75c-12.667 0-25.167 3-37.5 9s-23.5 15.167-33.5 27.5-18.167 28.166-24.5 47.499-9.5 42.333-9.5 69v134c-1.33301 36.667-10 65.334-26 86.001s-35.333 31-58 31v78c22.667 0 42 10.333 58 31s24.667 49.334 26 86.001v158c0 21.333 3.16699 40.166 9.5 56.499s14.5 30 24.5 41 21.167 19.333 33.5 25 24.833 8.5 37.5 8.5h75v-72z" glyph-name="braceleft" horiz-adv-x="333" unicode="&#x7b;"/><glyph d="M150 750v-1000h-78v1000h78z" glyph-name="bar" horiz-adv-x="222" unicode="&#x7c;"/><glyph d="M29-84l45 .00195312c10 0 18.167 2.5 24.5 7.5s11.5 11.667 15.5 20 6.83301 17.666 8.5 27.999 2.5 20.833 2.5 31.5v151c-.666992 23.333 2.16602 43 8.49902 59s14.166 29.333 23.499 40 18.833 18.667 28.5 24 17.5 8.66602 23.5 9.99902v3c-6 .666992-13.833 3.33398-23.5 8.00098s-19.167 12-28.5 22-17.166 23.5-23.499 40.5-9.16602 38.167-8.49902 63.5v150c0 10-.833008 20.167-2.5 30.5s-4.5 19.666-8.5 27.999-9.16699 15-15.5 20-14.5 7.5-24.5 7.5h-45v72h75c12.667 0 25.167-3 37.5-9s23.5-15.167 33.5-27.5 18.167-28.166 24.5-47.499 9.5-42.333 9.5-69v-134c0-36.667 8.33301-65.334 25-86.001s36.334-31 59.001-31v-78c-22.667 0-42.334-10.333-59.001-31s-25-49.334-25-86.001v-158c0-21.333-3.16699-40.166-9.5-56.499s-14.5-30-24.5-41-21.167-19.333-33.5-25-24.833-8.5-37.5-8.5h-75v72z" glyph-name="braceright" horiz-adv-x="333" unicode="&#x7d;"/><glyph d="M570 316c-20-34-40.833-57.166-62.5-69.499s-43.5-18.5-65.5-18.5c-19.333 0-38.666 3.66699-57.999 11s-38.666 15.666-57.999 24.999-37.833 17.666-55.5 24.999-34.5 11-50.5 11c-10.667 0-20.334-2.16699-29.001-6.5s-16.334-10-23.001-17-12.667-14.667-18-23-10-16.833-14-25.5l-40 62c15.333 26 33.333 47.167 54 63.5s47 24.5 79 24.5c20 0 39.5-3.66699 58.5-11s37.167-15.666 54.5-24.999 34.333-17.833 51-25.5 32.667-11.5 48-11.5c16 0 31.333 5.16699 46 15.5s29 29.5 43 57.5z" glyph-name="asciitilde" horiz-adv-x="666" unicode="&#x7e;"/><glyph glyph-name="uni00A0" horiz-adv-x="278" unicode="&#xa0;"/><glyph d="M93 282h96v-504h-96v504zM205 426c0-18-6.5-33.5-19.5-46.5s-28.5-19.5-46.5-19.5-33.5 6.5-46.5 19.5-19.5 28.5-19.5 46.5 6.5 33.5 19.5 46.5 28.5 19.5 46.5 19.5 33.5-6.5 46.5-19.5 19.5-28.5 19.5-46.5z" glyph-name="exclamdown" horiz-adv-x="278" unicode="&#xa1;"/><glyph d="M342 66c42 1.33301 77.332 18.6689 105.999 52.002l59-58c-19.333-22-43.166-38.833-71.499-50.5s-59.5-18.834-93.5-21.501v-66h-54v66c-33.333 3.33301-63.333 12-90 26s-49.334 32-68.001 54-33 47.5-43 76.5-15 59.833-15 92.5c0 34 5 65.167 15 93.5s24.333 53.166 43 74.499 41.334 39 68.001 53 56.667 23.333 90 28v66h54v-66c32-1.33301 62.833-8.5 92.5-21.5s54.5-31.167 74.5-54.5l-65-59c-12.667 15.333-28 28.5-46 39.5s-36.667 16.833-56 17.5v-342zM287.999 408.003c-20.667-3.33301-38.834-10.167-54.501-20.5s-28.834-23.166-39.501-38.499-18.667-32.5-24-51.5-8-38.5-8-58.5c0-20.667 2.83301-40.5 8.5-59.5s13.834-36.333 24.501-52 23.834-28.834 39.501-39.501 33.5-18 53.5-22v342z" glyph-name="cent" unicode="&#xa2;"/><glyph d="M432 328l-162-.00195312v-244h246v-84h-444v84h102v244h-96v72h96v100c0 28.667 4.66699 56.334 14 83.001s23.166 50.167 41.499 70.5 41.166 36.5 68.499 48.5 59.333 18 96 18c32 0 62.333-4.83301 91-14.5s54.667-25.5 78-47.5l-61-70c-15.333 14.667-31.333 26.334-48 35.001s-33.334 13-50.001 13c-17.333 0-34.166-2.83301-50.499-8.5s-30.666-14.834-42.999-27.501-22.166-29.167-29.499-49.5-11-45.166-11-74.499v-76h162v-72z" glyph-name="sterling" unicode="&#xa3;"/><glyph d="M78 611l49-47.9961c23.333 16.667 47.833 29 73.5 37s51.5 12 77.5 12 51.833-4 77.5-12 50.167-20.333 73.5-37l49 48 57-56-49-49c16.667-22.667 29-46.834 37-72.501s12-51.834 12-78.501-4-52.834-12-78.501-20.333-49.834-37-72.501l49-49-57-57-49 49c-22-16.667-45.833-29-71.5-37s-52.167-12-79.5-12c-54.667 0-105 16.333-151 49l-49-49-57 57 49 49c-16 22-28.167 46-36.5 72s-12.5 52.333-12.5 79c0 27.333 4.16699 53.833 12.5 79.5s20.5 49.5 36.5 71.5l-49 49zM99 355.004c0-24.667 4.66699-47.834 14-69.501s22.166-40.667 38.499-57 35.333-29.166 57-38.499 44.834-14 69.501-14 47.834 4.66699 69.501 14 40.667 22.166 57 38.499 29.166 35.333 38.499 57 14 44.834 14 69.501-4.66699 47.834-14 69.501-22.166 40.667-38.499 57-35.333 29.166-57 38.499-44.834 14-69.501 14-47.834-4.66699-69.501-14-40.667-22.166-57-38.499-29.166-35.333-38.499-57-14-44.834-14-69.501z" glyph-name="currency" unicode="&#xa4;"/><glyph d="M236 186h-171v66h171v53l-17 28h-154v66h114l-184 309h100l179-316 185 316h102l-186-309h116v-66h-154l-17-28v-53h171v-66h-171v-186h-84v186z" glyph-name="yen" unicode="&#xa5;"/><glyph d="M150 675v-350h-78v350h78zM150 175v-350h-78v350h78z" glyph-name="brokenbar" horiz-adv-x="222" unicode="&#xa6;"/><glyph d="M399 580c-8.66699 21.333-21.8311 36.8301-39.498 46.4971s-38.167 14.834-61.5 15.501c-26 0-49-6.33301-69-19s-30-32.334-30-59.001c0-20 7.33301-36.667 22-50s32.834-25.5 54.501-36.5 45.334-21.833 71.001-32.5 49.334-23.334 71.001-38.001 39.834-32.167 54.501-52.5 22-45.5 22-75.5c0-29.333-7.5-55.166-22.5-77.499s-35.167-40.166-60.5-53.499c20.667-14 36.667-31.167 48-51.5s17-43.5 17-69.5c0-28.667-6-53.667-18-75s-27.833-39.166-47.5-53.499-42.167-25-67.5-32-51-10.5-77-10.5c-44 0-84.5 9.5-121.5 28.5s-64.5 49.833-82.5 92.5l87 41c9.33301-28 25.166-48 47.499-60s47.833-18 76.5-18c12.667 0 25 1.66699 37 5s22.833 8.5 32.5 15.5 17.334 16 23.001 27 8.5 24.167 8.5 39.5c0 17.333-7.33301 32.333-22 45s-32.834 24.5-54.501 35.5-45.334 22.167-71.001 33.5-49.334 23.833-71.001 37.5-39.834 29.667-54.501 48-22 40.5-22 66.5c0 40 9.16699 71.667 27.5 95s41.833 42 70.5 56c-24 13.333-43.333 29.666-58 48.999s-22 42.333-22 69 6 50.334 18 71.001 27.5 37.834 46.5 51.501 40.667 24 65 31 48.833 10.5 73.5 10.5c18 0 36.167-1.83301 54.5-5.5s35.666-9.5 51.999-17.5 31.166-18.333 44.499-31 24-28 32-46zM243.003 399.997c-9.33301-3.33301-18.3311-7.33398-26.998-12.001s-16.5-10.167-23.5-16.5-12.667-13.666-17-21.999-6.5-17.833-6.5-28.5c0-15.333 3.16699-28.333 9.5-39s14.166-19.667 23.499-27 19.833-13.833 31.5-19.5l33.5-16.5 77-37c15.333 9.33301 29.166 22 41.499 38s18.5 32.667 18.5 50c0 12-2.5 22.667-7.5 32s-11.5 17.666-19.5 24.999-16.833 13.833-26.5 19.5-19.167 10.834-28.5 15.501z" glyph-name="section" unicode="&#xa7;"/><glyph d="M18 714c15.333 0 29.5-5.33301 42.5-16s19.5-24.334 19.5-41.001c0-18-5.83301-33-17.5-45s-26.5-18-44.5-18-32.833 6-44.5 18-17.5 27-17.5 45c0 16.667 6.5 30.334 19.5 41.001s27.167 16 42.5 16zM222 714c15.333 0 29.5-5.33301 42.5-16s19.5-24.334 19.5-41.001c0-18-5.83301-33-17.5-45s-26.5-18-44.5-18-32.833 6-44.5 18-17.5 27-17.5 45c0 16.667 6.5 30.334 19.5 41.001s27.167 16 42.5 16z" glyph-name="dieresis" horiz-adv-x="240" unicode="&#xa8;"/><glyph d="M28 354c0 51.333 9.83301 99.5 29.5 144.5s46.334 84.333 80.001 118 73 60.334 118 80.001 93.167 29.5 144.5 29.5 99.5-9.83301 144.5-29.5 84.333-46.334 118-80.001 60.334-73 80.001-118 29.5-93.167 29.5-144.5-9.83301-99.5-29.5-144.5-46.334-84.333-80.001-118-73-60.334-118-80.001-93.167-29.5-144.5-29.5-99.5 9.83301-144.5 29.5-84.333 46.334-118 80.001-60.334 73-80.001 118-29.5 93.167-29.5 144.5zM589 286c-10.667-48-32.3291-86.168-64.9961-114.501s-73-42.5-121-42.5c-34.667 0-65.834 5.5-93.501 16.5s-51 26.5-70 46.5-33.5 44-43.5 72-15 59-15 93 4.83301 65 14.5 93 23.667 52 42 72 41.166 35.5 68.499 46.5 58.666 16.5 93.999 16.5c50 0 92-12.833 126-38.5s55-63.834 63-114.501h-77c-6.66699 24.667-18.5 44.334-35.5 59.001s-42.167 22-75.5 22c-48 0-83.667-13.667-107-41s-35-65-35-113c0-22 3.16699-42.5 9.5-61.5s15.666-35.667 27.999-50 27.5-25.666 45.5-33.999 38.333-12.5 61-12.5c32 0 56.833 7.66699 74.5 23s29.167 36 34.5 62h77zM94.0049 353.999c0-42 8-81.667 24-119s37.833-69.833 65.5-97.5 60.167-49.5 97.5-65.5 77-24 119-24 81.667 8 119 24 69.833 37.833 97.5 65.5 49.5 60.167 65.5 97.5 24 77 24 119-8 81.667-24 119-37.833 69.833-65.5 97.5-60.167 49.5-97.5 65.5-77 24-119 24-81.667-8-119-24-69.833-37.833-97.5-65.5-49.5-60.167-65.5-97.5-24-77-24-119z" glyph-name="copyright" horiz-adv-x="800" unicode="&#xa9;"/><glyph d="M242 425v43.998l-2 1c-9.33301-19.333-22.5-32.666-39.5-39.999s-37.167-11-60.5-11c-13.333 0-26.333 1.83301-39 5.5s-24 9-34 16-18 15.833-24 26.5-9 23.334-9 38.001c0 24.667 6.66699 44 20 58s30 24.333 50 31 41.333 10.667 64 12 43.334 2 62.001 2h12v10c0 13.333-5.83301 24.666-17.5 33.999s-28.5 14-50.5 14c-16.667 0-32.667-2.66699-48-8s-29-13.666-41-24.999l-35 45c16 14 35 24.5 57 31.5s44 10.5 66 10.5c28.667 0 52-2.83301 70-8.5s31.667-13 41-22 15.666-19.5 18.999-31.5 5-24.333 5-37v-196h-66zM240 559.998c-14 0-29.166-.333008-45.499-1s-31.5-2.5-45.5-5.5-25.667-8-35-15-14-16.833-14-29.5c0-14 6.16699-23.5 18.5-28.5s26.166-7.5 41.499-7.5c28 0 48.667 6.33301 62 19s20 29 20 49v19h-2z" glyph-name="ordfeminine" horiz-adv-x="337" unicode="&#xaa;"/><glyph d="M47 243l145 216 62-41-117-175 118-175-62-41zM245 243l145 216 62-41-117-175 118-175-62-41z" glyph-name="guillemotleft" horiz-adv-x="500" unicode="&#xab;"/><glyph d="M600 141h-78v201h-456v78h534v-279z" glyph-name="logicalnot" horiz-adv-x="666" unicode="&#xac;"/><glyph d="M281 200h-246v84h246v-84z" glyph-name="uni00AD" horiz-adv-x="316" unicode="&#xad;"/><glyph d="M257 569h164c51.333 0 89.166-11 113.499-33s36.5-53.667 36.5-95c0-37.333-9.66699-65.333-29-84s-43.666-29.667-72.999-33l111-180h-82l-106 174h-57v-174h-78v425zM335 384h57c12 0 24 .5 36 1.5s22.833 3.5 32.5 7.5 17.5 10 23.5 18 9 19 9 33-3 25-9 33-13.833 14-23.5 18-20.5 6.33301-32.5 7-24 1-36 1h-57v-119zM28 354c0 51.333 9.83301 99.5 29.5 144.5s46.334 84.333 80.001 118 73 60.334 118 80.001 93.167 29.5 144.5 29.5 99.5-9.83301 144.5-29.5 84.333-46.334 118-80.001 60.334-73 80.001-118 29.5-93.167 29.5-144.5-9.83301-99.5-29.5-144.5-46.334-84.333-80.001-118-73-60.334-118-80.001-93.167-29.5-144.5-29.5-99.5 9.83301-144.5 29.5-84.333 46.334-118 80.001-60.334 73-80.001 118-29.5 93.167-29.5 144.5zM94 354c0-42 8-81.667 24-119s37.833-69.833 65.5-97.5 60.167-49.5 97.5-65.5 77-24 119-24 81.667 8 119 24 69.833 37.833 97.5 65.5 49.5 60.167 65.5 97.5 24 77 24 119-8 81.667-24 119-37.833 69.833-65.5 97.5-60.167 49.5-97.5 65.5-77 24-119 24-81.667-8-119-24-69.833-37.833-97.5-65.5-49.5-60.167-65.5-97.5-24-77-24-119z" glyph-name="registered" horiz-adv-x="800" unicode="&#xae;"/><glyph d="M264 600h-288v66h288v-66z" glyph-name="macron" horiz-adv-x="240" unicode="&#xaf;"/><glyph d="M51 571c0 20.667 3.83301 40 11.5 58s18.334 33.667 32.001 47 29.5 24 47.5 32 37.333 12 58 12 40-4 58-12 33.667-18.667 47-32 24-29 32-47 12-37.333 12-58-4-40-12-58-18.667-33.833-32-47.5-29-24.334-47-32.001-37.333-11.5-58-11.5-40 3.83301-58 11.5-33.833 18.334-47.5 32.001-24.334 29.5-32.001 47.5-11.5 37.333-11.5 58zM117 571c0-23.333 8-43 24-59s35.667-24 59-24 43 8 59 24 24 35.667 24 59-8 43-24 59-35.667 24-59 24-43-8-59-24-24-35.667-24-59z" glyph-name="degree" horiz-adv-x="400" unicode="&#xb0;"/><glyph d="M66 393h228v163h78v-163h228v-78h-228v-150h-78v150h-228v78zM66 129h534v-78h-534v78z" glyph-name="plusminus" horiz-adv-x="666" unicode="&#xb1;"/><glyph d="M26 365l178.999 159.999c10 9.33301 20 20 30 32s15 25.667 15 41c0 17.333-6.33301 31-19 41s-28 15-46 15c-19.333 0-35.166-5.33301-47.499-16s-19.166-25-20.499-43l-84 6c3.33301 38.667 19.166 68.167 47.499 88.5s63.166 30.5 104.499 30.5c20.667 0 40-2.5 58-7.5s33.833-12.5 47.5-22.5 24.334-22.5 32.001-37.5 11.5-32.5 11.5-52.5c0-26.667-6.66699-49.667-20-69s-30.333-37.666-51-54.999l-141-121h213v-66h-309v76z" glyph-name="twosuperior" horiz-adv-x="361" unicode="&#xb2;"/><glyph d="M140 543l17.998.00097656c11.333 0 22.333.5 33 1.5s20.334 3.5 29.001 7.5 15.5 9.83301 20.5 17.5 7.5 17.834 7.5 30.501c0 16-6 29-18 39s-27.667 15-47 15c-16 0-30.167-3.83301-42.5-11.5s-21.166-18.834-26.499-33.501l-83 20c10 32 28.667 55.167 56 69.5s58 21.5 92 21.5c20 0 38.833-2.33301 56.5-7s33.167-11.667 46.5-21 24-21 32-35 12-30.333 12-49c0-23.333-7-43.833-21-61.5s-33-29.167-57-34.5v-2c29.333-3.33301 51.5-14.833 66.5-34.5s22.5-42.5 22.5-68.5c0-20-4.16699-37.667-12.5-53s-19.666-28.333-33.999-39-30.833-18.667-49.5-24-38.334-8-59.001-8c-38 0-71.333 7.66699-100 23s-48 40.666-58 75.999l83 20c5.33301-16.667 13.833-29.667 25.5-39s28.167-14 49.5-14c20.667 0 38.667 5.83301 54 17.5s23 27.167 23 46.5c0 14-3 25.167-9 33.5s-14 14.833-24 19.5-21 7.66699-33 9-24 2-36 2h-17v66z" glyph-name="threesuperior" horiz-adv-x="361" unicode="&#xb3;"/><glyph d="M158 708h128l-149-144h-83z" glyph-name="acute" horiz-adv-x="240" unicode="&#xb4;"/><glyph d="M68 474l90 .00097656v-280c0-22 3-40.833 9-56.5s14-28.334 24-38.001 21.5-16.667 34.5-21 26.5-6.5 40.5-6.5c18.667 0 36 3 52 9s30 15.5 42 28.5 21.333 29.5 28 49.5 10 43.667 10 71v244h90v-474h-90v73h-2c-11.333-25.333-31-45.833-59-61.5s-60.333-23.5-97-23.5c-30.667 0-58 6-82 18v-234h-90v702z" glyph-name="mu" unicode="&#xb5;"/><glyph d="M260 318c-30.667 0-58.835 4.83301-84.502 14.5s-47.667 22.667-66 39-32.666 35.833-42.999 58.5-15.5 47-15.5 73c0 65.333 20.333 115.833 61 151.5s96.334 53.5 167.001 53.5h249v-834h-78v768h-112v-768h-78v444z" glyph-name="paragraph" horiz-adv-x="600" unicode="&#xb6;"/><glyph d="M73 303c0 18 6.5 33.5 19.5 46.5s28.5 19.5 46.5 19.5 33.5-6.5 46.5-19.5 19.5-28.5 19.5-46.5-6.5-33.5-19.5-46.5-28.5-19.5-46.5-19.5-33.5 6.5-46.5 19.5-19.5 28.5-19.5 46.5z" glyph-name="periodcentered" horiz-adv-x="278" unicode="&#xb7;"/><glyph d="M24-165c24.667-10 50.667-15 78-15 6 0 12.5.666992 19.5 2s13.667 3.5 20 6.5 11.5 7.16699 15.5 12.5 6 12.333 6 21c0 12.667-3.16699 22-9.5 28s-14.166 9.83301-23.499 11.5-19.5 1.66699-30.5 0-21.167-3.83398-30.5-6.50098l-21 18 61 87h49l-44-61h29c11.333 0 22.5-1.33301 33.5-4s20.833-7 29.5-13 15.667-13.5 21-22.5 8-19.833 8-32.5c0-18-3.83301-33-11.5-45s-17.5-21.667-29.5-29-25.5-12.666-40.5-15.999-29.5-5-43.5-5c-18 0-35.833 1.83301-53.5 5.5s-34.834 9.5-51.501 17.5z" glyph-name="cedilla" horiz-adv-x="240" unicode="&#xb8;"/><glyph d="M154 648l-85-72-42 46 128 98h71v-431h-72v359z" glyph-name="onesuperior" horiz-adv-x="361" unicode="&#xb9;"/><glyph d="M193 720c50 0 89.833-13.667 119.5-41s44.5-64 44.5-110-14.833-82.5-44.5-109.5-69.5-40.5-119.5-40.5-89.833 13.5-119.5 40.5-44.5 63.5-44.5 109.5 14.833 82.667 44.5 110 69.5 41 119.5 41zM193 660c-30 0-52.833-8.16699-68.5-24.5s-23.5-38.5-23.5-66.5 7.83301-50 23.5-66 38.5-24 68.5-24 52.833 8 68.5 24 23.5 38 23.5 66-7.83301 50.167-23.5 66.5-38.5 24.5-68.5 24.5z" glyph-name="ordmasculine" horiz-adv-x="386" unicode="&#xba;"/><glyph d="M453 243l-145-216-62 41 117 175-118 175 62 41zM255 243l-145-216-62 41 117 175-118 175 62 41z" glyph-name="guillemotright" horiz-adv-x="500" unicode="&#xbb;"/><glyph d="M673 94h-196v58l183 279h79v-271h62v-66h-62v-94h-66v94zM667 347h-2l-116-187h118v187zM591 740l60-32-439-740-60 32zM160 648l-85-72-42 46 128 98h71v-431h-72v359z" glyph-name="onequarter" horiz-adv-x="834" unicode="&#xbc;"/><glyph d="M158 648l-85-72-42 46 128 98h71v-431h-72v359zM494 76l178.999 159.999c10 9.33301 20 20 30 32s15 25.667 15 41c0 17.333-6.33301 31-19 41s-28 15-46 15c-19.333 0-35.166-5.33301-47.499-16s-19.166-25-20.499-43l-84 6c3.33301 38.667 19.166 68.167 47.499 88.5s63.166 30.5 104.499 30.5c20.667 0 40-2.5 58-7.5s33.833-12.5 47.5-22.5 24.334-22.5 32.001-37.5 11.5-32.5 11.5-52.5c0-26.667-6.66699-49.667-20-69s-30.333-37.666-51-54.999l-141-121h213v-66h-309v76zM578.999 739.999l60-32-439-740-60 32z" glyph-name="onehalf" horiz-adv-x="834" unicode="&#xbd;"/><glyph d="M693 94h-196v58l183 279h79v-271h62v-66h-62v-94h-66v94zM693 347h-2l-116-187h118v187zM631 740l60-32-439-740-60 32zM139 543l17.998.00097656c11.333 0 22.333.5 33 1.5s20.334 3.5 29.001 7.5 15.5 9.83301 20.5 17.5 7.5 17.834 7.5 30.501c0 16-6 29-18 39s-27.667 15-47 15c-16 0-30.167-3.83301-42.5-11.5s-21.166-18.834-26.499-33.501l-83 20c10 32 28.667 55.167 56 69.5s58 21.5 92 21.5c20 0 38.833-2.33301 56.5-7s33.167-11.667 46.5-21 24-21 32-35 12-30.333 12-49c0-23.333-7-43.833-21-61.5s-33-29.167-57-34.5v-2c29.333-3.33301 51.5-14.833 66.5-34.5s22.5-42.5 22.5-68.5c0-20-4.16699-37.667-12.5-53s-19.666-28.333-33.999-39-30.833-18.667-49.5-24-38.334-8-59.001-8c-38 0-71.333 7.66699-100 23s-48 40.666-58 75.999l83 20c5.33301-16.667 13.833-29.667 25.5-39s28.167-14 49.5-14c20.667 0 38.667 5.83301 54 17.5s23 27.167 23 46.5c0 14-3 25.167-9 33.5s-14 14.833-24 19.5-21 7.66699-33 9-24 2-36 2h-17v66z" glyph-name="threequarters" horiz-adv-x="834" unicode="&#xbe;"/><glyph d="M290 288l.00390625-61c0-18-1.33301-33-4-45s-6.66699-22.833-12-32.5-12.666-19-21.999-28l-33-32.5-32-30.5c-10.667-10.333-20.334-21-29.001-32s-15.834-22.833-21.501-35.5-8.5-26.334-8.5-41.001c0-15.333 2.83301-29.5 8.5-42.5s13.167-24.167 22.5-33.5 20.5-16.666 33.5-21.999 26.833-8 41.5-8c32.667 0 59.167 10.333 79.5 31s32.5 47.667 36.5 81l102-10c-8.66699-58-32.834-103.5-72.501-136.5s-88.834-49.5-147.501-49.5c-28 0-54.167 4.16699-78.5 12.5s-45.5 20.333-63.5 36-32.167 35-42.5 58-15.5 49.167-15.5 78.5c0 25.333 3.66699 48.333 11 69s17.666 37.667 30.999 51l70 71c10 10 18.167 18.667 24.5 26s11.5 14.833 15.5 22.5 6.66699 16 8 25 2 20.5 2 34.5v44h96zM309.004 426c0-18-6.5-33.5-19.5-46.5s-28.5-19.5-46.5-19.5-33.5 6.5-46.5 19.5-19.5 28.5-19.5 46.5 6.5 33.5 19.5 46.5 28.5 19.5 46.5 19.5 33.5-6.5 46.5-19.5 19.5-28.5 19.5-46.5z" glyph-name="questiondown" horiz-adv-x="500" unicode="&#xbf;"/><glyph d="M313 708h87l303-708h-112l-71 175h-337l-70-175h-112zM485 259l-132 325h-2l-134-325h268zM418 748h-83l-149 144h128z" glyph-name="Agrave" horiz-adv-x="704" unicode="&#xc0;"/><glyph d="M313 708h87l303-708h-112l-71 175h-337l-70-175h-112zM485 259l-132 325h-2l-134-325h268zM390 892h128l-149-144h-83z" glyph-name="Aacute" horiz-adv-x="704" unicode="&#xc1;"/><glyph d="M313 708h87l303-708h-112l-71 175h-337l-70-175h-112zM485 259l-132 325h-2l-134-325h268zM426 748l-74 96-74-96h-91l112 144h106l112-144h-91z" glyph-name="Acircumflex" horiz-adv-x="704" unicode="&#xc2;"/><glyph d="M313 708h87l303-708h-112l-71 175h-337l-70-175h-112zM485 259l-132 325h-2l-134-325h268zM184 760c2 12.667 5.66699 25.333 11 38s12.166 23.834 20.499 33.501 18.333 17.5 30 23.5 24.834 9 39.501 9c15.333 0 29.833-2.5 43.5-7.5l40.5-15.5c10-4 18.833-7.83301 26.5-11.5s16.834-5.5 27.501-5.5c13.333 0 24 4.33301 32 13s13.667 19 17 31h48c-2-12.667-5.33301-25.167-10-37.5s-10.667-23.5-18-33.5-16.5-18-27.5-24-23.833-9-38.5-9c-14 0-27.833 2.16699-41.5 6.5s-26.834 9.16602-39.501 14.499l-32 12.5c-11.333 4.33301-22.666 6.5-33.999 6.5-12.667 0-22.834-4.5-30.501-13.5s-13.167-19.167-16.5-30.5h-48z" glyph-name="Atilde" horiz-adv-x="704" unicode="&#xc3;"/><glyph d="M313 708h87l303-708h-112l-71 175h-337l-70-175h-112zM485 259l-132 325h-2l-134-325h268zM250 898c15.333 0 29.5-5.33301 42.5-16s19.5-24.334 19.5-41.001c0-18-5.83301-33-17.5-45s-26.5-18-44.5-18-32.833 6-44.5 18-17.5 27-17.5 45c0 16.667 6.5 30.334 19.5 41.001s27.167 16 42.5 16zM454 898c15.333 0 29.5-5.33301 42.5-16s19.5-24.334 19.5-41.001c0-18-5.83301-33-17.5-45s-26.5-18-44.5-18-32.833 6-44.5 18-17.5 27-17.5 45c0 16.667 6.5 30.334 19.5 41.001s27.167 16 42.5 16z" glyph-name="Adieresis" horiz-adv-x="704" unicode="&#xc4;"/><glyph d="M313 708h87l303-708h-112l-71 175h-337l-70-175h-112zM485 259l-132 325h-2l-134-325h268zM250 825c0 14 2.83301 27 8.5 39s13.167 22.5 22.5 31.5 20.166 16 32.499 21 25.166 7.5 38.499 7.5c14 0 27.167-2.5 39.5-7.5s23.166-12 32.499-21 16.666-19.333 21.999-31 8-24.5 8-38.5-2.66699-27-8-39-12.666-22.5-21.999-31.5-20.166-16-32.499-21-25.5-7.5-39.5-7.5c-13.333 0-26.166 2.5-38.499 7.5s-23.166 12-32.499 21-16.833 19.333-22.5 31-8.5 24.5-8.5 38.5zM412 825c0 16.667-5.99805 30.334-17.998 41.001s-26 16-42 16-30-5.33301-42-16-18-24.334-18-41.001c0-16 6.16699-29.333 18.5-40s26.166-16 41.499-16 29.166 5.33301 41.499 16 18.5 24 18.5 40z" glyph-name="Aring" horiz-adv-x="704" unicode="&#xc5;"/><glyph d="M450 708h456v-90h-295v-211h277v-90h-277v-227h307v-90h-403v172h-304l-101-172h-118zM515 262v356h-19l-233-356h252z" glyph-name="AE" horiz-adv-x="963" unicode="&#xc6;"/><glyph d="M584 555c-20 26-45.335 45.999-76.002 59.999s-62.334 21-95.001 21c-40 0-76.167-7.5-108.5-22.5s-60-35.5-83-61.5-40.833-56.5-53.5-91.5-19-72.5-19-112.5c0-37.333 6-72.666 18-105.999s29.333-62.666 52-87.999 50.334-45.333 83.001-60 69.667-22 111-22c40.667 0 76.334 8.33301 107.001 25s56.667 40 78 70l81-61c-5.33301-7.33301-14.666-17.833-27.999-31.5s-31-27.334-53-41.001-48.5-25.667-79.5-36-66.833-15.5-107.5-15.5c-5.33301 0-9.66602.333008-12.999 1l-32-44h29c11.333 0 22.5-1.33301 33.5-4s20.833-7 29.5-13 15.667-13.5 21-22.5 8-19.833 8-32.5c0-18-3.83301-33-11.5-45s-17.5-21.667-29.5-29-25.5-12.666-40.5-15.999-29.5-5-43.5-5c-18 0-35.833 1.83301-53.5 5.5s-34.834 9.5-51.501 17.5l19 40c24.667-10 50.667-15 78-15 6 0 12.5.666992 19.5 2s13.667 3.5 20 6.5 11.5 7.16699 15.5 12.5 6 12.333 6 21c0 12.667-3.16699 22-9.5 28s-14.166 9.83301-23.499 11.5-19.5 1.66699-30.5 0-21.167-3.83398-30.5-6.50098l-21 18 52 74c-47.333 7.33301-89.833 22.666-127.5 45.999s-69.667 51.5-96 84.5-46.5 69.5-60.5 109.5-21 80.333-21 121c0 54.667 9 105.167 27 151.5s43.167 86.333 75.5 120 71.166 59.834 116.499 78.501 95.333 28 150 28c46.667 0 92.5-9 137.5-27s81.833-45.667 110.5-83z" glyph-name="Ccedilla" horiz-adv-x="704" unicode="&#xc7;"/><glyph d="M91 708h457v-90h-361v-211h336v-90h-336v-227h379v-90h-475v708zM372 748h-83l-149 144h128z" glyph-name="Egrave" horiz-adv-x="611" unicode="&#xc8;"/><glyph d="M91 708h457v-90h-361v-211h336v-90h-336v-227h379v-90h-475v708zM344 892h128l-149-144h-83z" glyph-name="Eacute" horiz-adv-x="611" unicode="&#xc9;"/><glyph d="M91 708h457v-90h-361v-211h336v-90h-336v-227h379v-90h-475v708zM380 748l-74 96-74-96h-91l112 144h106l112-144h-91z" glyph-name="Ecircumflex" horiz-adv-x="611" unicode="&#xca;"/><glyph d="M91 708h457v-90h-361v-211h336v-90h-336v-227h379v-90h-475v708zM204 898c15.333 0 29.5-5.33301 42.5-16s19.5-24.334 19.5-41.001c0-18-5.83301-33-17.5-45s-26.5-18-44.5-18-32.833 6-44.5 18-17.5 27-17.5 45c0 16.667 6.5 30.334 19.5 41.001s27.167 16 42.5 16zM408 898c15.333 0 29.5-5.33301 42.5-16s19.5-24.334 19.5-41.001c0-18-5.83301-33-17.5-45s-26.5-18-44.5-18-32.833 6-44.5 18-17.5 27-17.5 45c0 16.667 6.5 30.334 19.5 41.001s27.167 16 42.5 16z" glyph-name="Edieresis" horiz-adv-x="611" unicode="&#xcb;"/><glyph d="M91 708h96v-708h-96v708zM205 748h-83l-149 144h128z" glyph-name="Igrave" horiz-adv-x="278" unicode="&#xcc;"/><glyph d="M91 708h96v-708h-96v708zM177 892h128l-149-144h-83z" glyph-name="Iacute" horiz-adv-x="278" unicode="&#xcd;"/><glyph d="M91 708h96v-708h-96v708zM213 748l-74 96-74-96h-91l112 144h106l112-144h-91z" glyph-name="Icircumflex" horiz-adv-x="278" unicode="&#xce;"/><glyph d="M91 708h96v-708h-96v708zM37 898c15.333 0 29.5-5.33301 42.5-16s19.5-24.334 19.5-41.001c0-18-5.83301-33-17.5-45s-26.5-18-44.5-18-32.833 6-44.5 18-17.5 27-17.5 45c0 16.667 6.5 30.334 19.5 41.001s27.167 16 42.5 16zM241 898c15.333 0 29.5-5.33301 42.5-16s19.5-24.334 19.5-41.001c0-18-5.83301-33-17.5-45s-26.5-18-44.5-18-32.833 6-44.5 18-17.5 27-17.5 45c0 16.667 6.5 30.334 19.5 41.001s27.167 16 42.5 16z" glyph-name="Idieresis" horiz-adv-x="278" unicode="&#xcf;"/><glyph d="M75 336l-72.002-.00097656v66h72v306h247c50 0 93.833-5.66699 131.5-17s70.334-26.5 98.001-45.5 50.667-40.833 69-65.5 32.833-50 43.5-76 18.334-52 23.001-78 7-50 7-72c0-45.333-8.33301-89.166-25-131.499s-41.334-80-74.001-113-73.167-59.5-121.5-79.5-104.166-30-167.499-30h-231v336zM170.998 89.999l121 .00097656c40.667 0 79.167 5.5 115.5 16.5s68.166 27.5 95.499 49.5 49 49.5 65 82.5 24 71.5 24 115.5c0 22.667-3.66699 49.167-11 79.5s-21.166 59.166-41.499 86.499-48.5 50.5-84.5 69.5-82.667 28.5-140 28.5h-144v-216h234v-66h-234v-246z" glyph-name="Eth" horiz-adv-x="741" unicode="&#xd0;"/><glyph d="M91 708h126l390-582h2v582h96v-708h-122l-394 582h-2v-582h-96v708zM230 760c2 12.667 5.66699 25.333 11 38s12.166 23.834 20.499 33.501 18.333 17.5 30 23.5 24.834 9 39.501 9c15.333 0 29.833-2.5 43.5-7.5l40.5-15.5c10-4 18.833-7.83301 26.5-11.5s16.834-5.5 27.501-5.5c13.333 0 24 4.33301 32 13s13.667 19 17 31h48c-2-12.667-5.33301-25.167-10-37.5s-10.667-23.5-18-33.5-16.5-18-27.5-24-23.833-9-38.5-9c-14 0-27.833 2.16699-41.5 6.5s-26.834 9.16602-39.501 14.499l-32 12.5c-11.333 4.33301-22.666 6.5-33.999 6.5-12.667 0-22.834-4.5-30.501-13.5s-13.167-19.167-16.5-30.5h-48z" glyph-name="Ntilde" horiz-adv-x="796" unicode="&#xd1;"/><glyph d="M416-18c-54 0-103.667 9.5-149 28.5s-84.166 45.167-116.499 78.5-57.666 72.666-75.999 117.999-27.5 94.333-27.5 147 9.16699 101.667 27.5 147 43.666 84.666 75.999 117.999 71.166 59.5 116.499 78.5 95 28.5 149 28.5 103.667-9.5 149-28.5 84.166-45.167 116.499-78.5 57.666-72.666 75.999-117.999 27.5-94.333 27.5-147-9.16699-101.667-27.5-147-43.666-84.666-75.999-117.999-71.166-59.5-116.499-78.5-95-28.5-149-28.5zM416 72c40.667 0 77.334 7.5 110.001 22.5s60.667 35.167 84 60.5 41.333 55.166 54 89.499 19 70.833 19 109.5-6.33301 75.167-19 109.5-30.667 64.166-54 89.499-51.333 45.5-84 60.5-69.334 22.5-110.001 22.5-77.334-7.5-110.001-22.5-60.667-35.167-84-60.5-41.333-55.166-54-89.499-19-70.833-19-109.5 6.33301-75.167 19-109.5 30.667-64.166 54-89.499 51.333-45.5 84-60.5 69.334-22.5 110.001-22.5zM482 748h-83l-149 144h128z" glyph-name="Ograve" horiz-adv-x="832" unicode="&#xd2;"/><glyph d="M416-18c-54 0-103.667 9.5-149 28.5s-84.166 45.167-116.499 78.5-57.666 72.666-75.999 117.999-27.5 94.333-27.5 147 9.16699 101.667 27.5 147 43.666 84.666 75.999 117.999 71.166 59.5 116.499 78.5 95 28.5 149 28.5 103.667-9.5 149-28.5 84.166-45.167 116.499-78.5 57.666-72.666 75.999-117.999 27.5-94.333 27.5-147-9.16699-101.667-27.5-147-43.666-84.666-75.999-117.999-71.166-59.5-116.499-78.5-95-28.5-149-28.5zM416 72c40.667 0 77.334 7.5 110.001 22.5s60.667 35.167 84 60.5 41.333 55.166 54 89.499 19 70.833 19 109.5-6.33301 75.167-19 109.5-30.667 64.166-54 89.499-51.333 45.5-84 60.5-69.334 22.5-110.001 22.5-77.334-7.5-110.001-22.5-60.667-35.167-84-60.5-41.333-55.166-54-89.499-19-70.833-19-109.5 6.33301-75.167 19-109.5 30.667-64.166 54-89.499 51.333-45.5 84-60.5 69.334-22.5 110.001-22.5zM454 892h128l-149-144h-83z" glyph-name="Oacute" horiz-adv-x="832" unicode="&#xd3;"/><glyph d="M416-18c-54 0-103.667 9.5-149 28.5s-84.166 45.167-116.499 78.5-57.666 72.666-75.999 117.999-27.5 94.333-27.5 147 9.16699 101.667 27.5 147 43.666 84.666 75.999 117.999 71.166 59.5 116.499 78.5 95 28.5 149 28.5 103.667-9.5 149-28.5 84.166-45.167 116.499-78.5 57.666-72.666 75.999-117.999 27.5-94.333 27.5-147-9.16699-101.667-27.5-147-43.666-84.666-75.999-117.999-71.166-59.5-116.499-78.5-95-28.5-149-28.5zM416 72c40.667 0 77.334 7.5 110.001 22.5s60.667 35.167 84 60.5 41.333 55.166 54 89.499 19 70.833 19 109.5-6.33301 75.167-19 109.5-30.667 64.166-54 89.499-51.333 45.5-84 60.5-69.334 22.5-110.001 22.5-77.334-7.5-110.001-22.5-60.667-35.167-84-60.5-41.333-55.166-54-89.499-19-70.833-19-109.5 6.33301-75.167 19-109.5 30.667-64.166 54-89.499 51.333-45.5 84-60.5 69.334-22.5 110.001-22.5zM490 748l-74 96-74-96h-91l112 144h106l112-144h-91z" glyph-name="Ocircumflex" horiz-adv-x="832" unicode="&#xd4;"/><glyph d="M416-18c-54 0-103.667 9.5-149 28.5s-84.166 45.167-116.499 78.5-57.666 72.666-75.999 117.999-27.5 94.333-27.5 147 9.16699 101.667 27.5 147 43.666 84.666 75.999 117.999 71.166 59.5 116.499 78.5 95 28.5 149 28.5 103.667-9.5 149-28.5 84.166-45.167 116.499-78.5 57.666-72.666 75.999-117.999 27.5-94.333 27.5-147-9.16699-101.667-27.5-147-43.666-84.666-75.999-117.999-71.166-59.5-116.499-78.5-95-28.5-149-28.5zM416 72c40.667 0 77.334 7.5 110.001 22.5s60.667 35.167 84 60.5 41.333 55.166 54 89.499 19 70.833 19 109.5-6.33301 75.167-19 109.5-30.667 64.166-54 89.499-51.333 45.5-84 60.5-69.334 22.5-110.001 22.5-77.334-7.5-110.001-22.5-60.667-35.167-84-60.5-41.333-55.166-54-89.499-19-70.833-19-109.5 6.33301-75.167 19-109.5 30.667-64.166 54-89.499 51.333-45.5 84-60.5 69.334-22.5 110.001-22.5zM248 760c2 12.667 5.66699 25.333 11 38s12.166 23.834 20.499 33.501 18.333 17.5 30 23.5 24.834 9 39.501 9c15.333 0 29.833-2.5 43.5-7.5l40.5-15.5c10-4 18.833-7.83301 26.5-11.5s16.834-5.5 27.501-5.5c13.333 0 24 4.33301 32 13s13.667 19 17 31h48c-2-12.667-5.33301-25.167-10-37.5s-10.667-23.5-18-33.5-16.5-18-27.5-24-23.833-9-38.5-9c-14 0-27.833 2.16699-41.5 6.5s-26.834 9.16602-39.501 14.499l-32 12.5c-11.333 4.33301-22.666 6.5-33.999 6.5-12.667 0-22.834-4.5-30.501-13.5s-13.167-19.167-16.5-30.5h-48z" glyph-name="Otilde" horiz-adv-x="832" unicode="&#xd5;"/><glyph d="M416-18c-54 0-103.667 9.5-149 28.5s-84.166 45.167-116.499 78.5-57.666 72.666-75.999 117.999-27.5 94.333-27.5 147 9.16699 101.667 27.5 147 43.666 84.666 75.999 117.999 71.166 59.5 116.499 78.5 95 28.5 149 28.5 103.667-9.5 149-28.5 84.166-45.167 116.499-78.5 57.666-72.666 75.999-117.999 27.5-94.333 27.5-147-9.16699-101.667-27.5-147-43.666-84.666-75.999-117.999-71.166-59.5-116.499-78.5-95-28.5-149-28.5zM416 72c40.667 0 77.334 7.5 110.001 22.5s60.667 35.167 84 60.5 41.333 55.166 54 89.499 19 70.833 19 109.5-6.33301 75.167-19 109.5-30.667 64.166-54 89.499-51.333 45.5-84 60.5-69.334 22.5-110.001 22.5-77.334-7.5-110.001-22.5-60.667-35.167-84-60.5-41.333-55.166-54-89.499-19-70.833-19-109.5 6.33301-75.167 19-109.5 30.667-64.166 54-89.499 51.333-45.5 84-60.5 69.334-22.5 110.001-22.5zM314 898c15.333 0 29.5-5.33301 42.5-16s19.5-24.334 19.5-41.001c0-18-5.83301-33-17.5-45s-26.5-18-44.5-18-32.833 6-44.5 18-17.5 27-17.5 45c0 16.667 6.5 30.334 19.5 41.001s27.167 16 42.5 16zM518 898c15.333 0 29.5-5.33301 42.5-16s19.5-24.334 19.5-41.001c0-18-5.83301-33-17.5-45s-26.5-18-44.5-18-32.833 6-44.5 18-17.5 27-17.5 45c0 16.667 6.5 30.334 19.5 41.001s27.167 16 42.5 16z" glyph-name="Odieresis" horiz-adv-x="832" unicode="&#xd6;"/><glyph d="M278 303l-212 212 55 55 212-212 213 212 54-55-212-212 212-212-56-55-211 212-211-212-54 56z" glyph-name="multiply" horiz-adv-x="666" unicode="&#xd7;"/><glyph d="M246 131c22.667-18.667 48.166-33.165 76.499-43.498s59.5-15.5 93.5-15.5c40.667 0 77.334 7.5 110.001 22.5s60.667 35.167 84 60.5 41.333 55.166 54 89.499 19 70.833 19 109.5c0 36-5.33301 69.667-16 101s-26 59.666-46 84.999zM580.999 580.002c-22 17.333-46.8311 31.001-74.498 41.001s-57.834 15-90.501 15c-40.667 0-77.334-7.5-110.001-22.5s-60.667-35.167-84-60.5-41.333-55.166-54-89.499-19-70.833-19-109.5c0-34.667 5-67.334 15-98.001s24.333-58.334 43-83.001zM55.001 8.00293l84.998 93c-30 33.333-53 71.333-69 114s-24 89-24 139c0 52.667 9.16699 101.667 27.5 147s43.666 84.666 75.999 117.999 71.166 59.5 116.499 78.5 95 28.5 149 28.5c44.667 0 86.334-6.66699 125.001-20s73.667-32 105-56l83 90 42-38-83-90c30.667-32.667 54.5-71 71.5-115s25.5-91.667 25.5-143c0-52.667-9.16699-101.667-27.5-147s-43.666-84.666-75.999-117.999-71.166-59.5-116.499-78.5-95-28.5-149-28.5c-46 0-88.667 6.83301-128 20.5s-74.666 33.167-105.999 58.5l-84-91z" glyph-name="Oslash" horiz-adv-x="832" unicode="&#xd8;"/><glyph d="M174 708v-434c0-22 3-44.833 9-68.5s16-45.5 30-65.5 32.333-36.333 55-49 50.667-19 84-19 61.333 6.33301 84 19 41 29 55 49 24 41.833 30 65.5 9 46.5 9 68.5v434h96v-449c0-41.333-7-78.833-21-112.5s-33.333-62.834-58-87.501-53.667-43.667-87-57-69.333-20-108-20-74.667 6.66699-108 20-62.333 32.333-87 57-44 53.834-58 87.501-21 71.167-21 112.5v449h96zM418 748h-83l-149 144h128z" glyph-name="Ugrave" horiz-adv-x="704" unicode="&#xd9;"/><glyph d="M174 708v-434c0-22 3-44.833 9-68.5s16-45.5 30-65.5 32.333-36.333 55-49 50.667-19 84-19 61.333 6.33301 84 19 41 29 55 49 24 41.833 30 65.5 9 46.5 9 68.5v434h96v-449c0-41.333-7-78.833-21-112.5s-33.333-62.834-58-87.501-53.667-43.667-87-57-69.333-20-108-20-74.667 6.66699-108 20-62.333 32.333-87 57-44 53.834-58 87.501-21 71.167-21 112.5v449h96zM390 892h128l-149-144h-83z" glyph-name="Uacute" horiz-adv-x="704" unicode="&#xda;"/><glyph d="M174 708v-434c0-22 3-44.833 9-68.5s16-45.5 30-65.5 32.333-36.333 55-49 50.667-19 84-19 61.333 6.33301 84 19 41 29 55 49 24 41.833 30 65.5 9 46.5 9 68.5v434h96v-449c0-41.333-7-78.833-21-112.5s-33.333-62.834-58-87.501-53.667-43.667-87-57-69.333-20-108-20-74.667 6.66699-108 20-62.333 32.333-87 57-44 53.834-58 87.501-21 71.167-21 112.5v449h96zM426 748l-74 96-74-96h-91l112 144h106l112-144h-91z" glyph-name="Ucircumflex" horiz-adv-x="704" unicode="&#xdb;"/><glyph d="M174 708v-434c0-22 3-44.833 9-68.5s16-45.5 30-65.5 32.333-36.333 55-49 50.667-19 84-19 61.333 6.33301 84 19 41 29 55 49 24 41.833 30 65.5 9 46.5 9 68.5v434h96v-449c0-41.333-7-78.833-21-112.5s-33.333-62.834-58-87.501-53.667-43.667-87-57-69.333-20-108-20-74.667 6.66699-108 20-62.333 32.333-87 57-44 53.834-58 87.501-21 71.167-21 112.5v449h96zM250 898c15.333 0 29.5-5.33301 42.5-16s19.5-24.334 19.5-41.001c0-18-5.83301-33-17.5-45s-26.5-18-44.5-18-32.833 6-44.5 18-17.5 27-17.5 45c0 16.667 6.5 30.334 19.5 41.001s27.167 16 42.5 16zM454 898c15.333 0 29.5-5.33301 42.5-16s19.5-24.334 19.5-41.001c0-18-5.83301-33-17.5-45s-26.5-18-44.5-18-32.833 6-44.5 18-17.5 27-17.5 45c0 16.667 6.5 30.334 19.5 41.001s27.167 16 42.5 16z" glyph-name="Udieresis" horiz-adv-x="704" unicode="&#xdc;"/><glyph d="M258 302l-268 406h123l193-311 199 311h117l-268-406v-302h-96v302zM344 892h128l-149-144h-83z" glyph-name="Yacute" horiz-adv-x="612" unicode="&#xdd;"/><glyph d="M91 708h96v-145h153c45.333 0 82.666-6.16699 111.999-18.5s52.5-28 69.5-47 28.833-40.333 35.5-64 10-46.5 10-68.5-3.33301-44.833-10-68.5-18.5-45-35.5-64-40.167-34.667-69.5-47-66.666-18.5-111.999-18.5h-153v-167h-96v708zM187 251h126c18.667 0 37.167 1.5 55.5 4.5s34.666 8.5 48.999 16.5 25.833 19.5 34.5 34.5 13 34.5 13 58.5-4.33301 43.5-13 58.5-20.167 26.5-34.5 34.5-30.666 13.5-48.999 16.5-36.833 4.5-55.5 4.5h-126v-228z" glyph-name="Thorn" horiz-adv-x="593" unicode="&#xde;"/><glyph d="M68 509c0 35.333 3.00293 68.665 9.00293 99.998s17.167 58.833 33.5 82.5 39.166 42.334 68.499 56.001 67.333 20.5 114 20.5c28 0 54.167-3.83301 78.5-11.5s45.833-19.167 64.5-34.5 33.334-34.333 44.001-57 16-48.667 16-78c0-41.333-10-75-30-101s-47-44-81-54v-2c20-3.33301 40-9.66602 60-18.999s38.167-22.5 54.5-39.5 29.666-38 39.999-63 15.5-54.5 15.5-88.5c0-36-6-68.333-18-97s-28.833-53-50.5-73-47.334-35.333-77.001-46-61.834-16-96.501-16c-24.667 0-48.334 3-71.001 9v81c16.667-4 34.334-6 53.001-6 49.333 0 89 13.5 119 40.5s45 65.5 45 115.5c0 26.667-4.5 49.667-13.5 69s-21.333 35.333-37 48-34 22.167-55 28.5-43.833 9.5-68.5 9.5h-14v84h16c34 0 61.333 9.66699 82 29s31 46 31 80c0 20-3.33301 37-10 51s-15.334 25.167-26.001 33.5-22.667 14.333-36 18-26.666 5.5-39.999 5.5c-25.333 0-46.333-4.16699-63-12.5s-30-19.833-40-34.5-17-32-21-52-6-41.667-6-65v-520h-90v509z" glyph-name="germandbls" horiz-adv-x="611" unicode="&#xdf;"/><glyph d="M70 416c25.333 23.333 54.667 40.833 88 52.5s66.666 17.5 99.999 17.5c34.667 0 64.5-4.33301 89.5-13s45.5-20.334 61.5-35.001 27.833-31.5 35.5-50.5 11.5-38.833 11.5-59.5v-242c0-16.667.333008-32 1-46s1.66699-27.333 3-40h-80c-2 24-3 48-3 72h-2c-20-30.667-43.667-52.334-71-65.001s-59-19-95-19c-22 0-43 3-63 9s-37.5 15-52.5 27-26.833 26.833-35.5 44.5-13 38.167-13 61.5c0 30.667 6.83301 56.334 20.5 77.001s32.334 37.5 56.001 50.5 51.334 22.333 83.001 28 65.5 8.5 101.5 8.5h66v20c0 12-2.33301 24-7 36s-11.667 22.833-21 32.5-21 17.334-35 23.001-30.667 8.5-50 8.5c-17.333 0-32.5-1.66699-45.5-5s-24.833-7.5-35.5-12.5-20.334-10.833-29.001-17.5l-25-19zM324.001 228c-21.333 0-43.168-1.16504-65.501-3.49805s-42.666-6.83301-60.999-13.5-33.333-16-45-28-17.5-27.333-17.5-46c0-27.333 9.16699-47 27.5-59s43.166-18 74.499-18c24.667 0 45.667 4.16699 63 12.5s31.333 19.166 42 32.499 18.334 28.166 23.001 44.499 7 32.5 7 48.5v30h-48zM325.999 564.002h-83l-149 144h128z" glyph-name="agrave" horiz-adv-x="519" unicode="&#xe0;"/><glyph d="M70 416c25.333 23.333 54.667 40.833 88 52.5s66.666 17.5 99.999 17.5c34.667 0 64.5-4.33301 89.5-13s45.5-20.334 61.5-35.001 27.833-31.5 35.5-50.5 11.5-38.833 11.5-59.5v-242c0-16.667.333008-32 1-46s1.66699-27.333 3-40h-80c-2 24-3 48-3 72h-2c-20-30.667-43.667-52.334-71-65.001s-59-19-95-19c-22 0-43 3-63 9s-37.5 15-52.5 27-26.833 26.833-35.5 44.5-13 38.167-13 61.5c0 30.667 6.83301 56.334 20.5 77.001s32.334 37.5 56.001 50.5 51.334 22.333 83.001 28 65.5 8.5 101.5 8.5h66v20c0 12-2.33301 24-7 36s-11.667 22.833-21 32.5-21 17.334-35 23.001-30.667 8.5-50 8.5c-17.333 0-32.5-1.66699-45.5-5s-24.833-7.5-35.5-12.5-20.334-10.833-29.001-17.5l-25-19zM324.001 228c-21.333 0-43.168-1.16504-65.501-3.49805s-42.666-6.83301-60.999-13.5-33.333-16-45-28-17.5-27.333-17.5-46c0-27.333 9.16699-47 27.5-59s43.166-18 74.499-18c24.667 0 45.667 4.16699 63 12.5s31.333 19.166 42 32.499 18.334 28.166 23.001 44.499 7 32.5 7 48.5v30h-48zM297.999 708.002h128l-149-144h-83z" glyph-name="aacute" horiz-adv-x="519" unicode="&#xe1;"/><glyph d="M70 416c25.333 23.333 54.667 40.833 88 52.5s66.666 17.5 99.999 17.5c34.667 0 64.5-4.33301 89.5-13s45.5-20.334 61.5-35.001 27.833-31.5 35.5-50.5 11.5-38.833 11.5-59.5v-242c0-16.667.333008-32 1-46s1.66699-27.333 3-40h-80c-2 24-3 48-3 72h-2c-20-30.667-43.667-52.334-71-65.001s-59-19-95-19c-22 0-43 3-63 9s-37.5 15-52.5 27-26.833 26.833-35.5 44.5-13 38.167-13 61.5c0 30.667 6.83301 56.334 20.5 77.001s32.334 37.5 56.001 50.5 51.334 22.333 83.001 28 65.5 8.5 101.5 8.5h66v20c0 12-2.33301 24-7 36s-11.667 22.833-21 32.5-21 17.334-35 23.001-30.667 8.5-50 8.5c-17.333 0-32.5-1.66699-45.5-5s-24.833-7.5-35.5-12.5-20.334-10.833-29.001-17.5l-25-19zM324.001 228c-21.333 0-43.168-1.16504-65.501-3.49805s-42.666-6.83301-60.999-13.5-33.333-16-45-28-17.5-27.333-17.5-46c0-27.333 9.16699-47 27.5-59s43.166-18 74.499-18c24.667 0 45.667 4.16699 63 12.5s31.333 19.166 42 32.499 18.334 28.166 23.001 44.499 7 32.5 7 48.5v30h-48zM333.999 564.002l-74 96-74-96h-91l112 144h106l112-144h-91z" glyph-name="acircumflex" horiz-adv-x="519" unicode="&#xe2;"/><glyph d="M70 416c25.333 23.333 54.667 40.833 88 52.5s66.666 17.5 99.999 17.5c34.667 0 64.5-4.33301 89.5-13s45.5-20.334 61.5-35.001 27.833-31.5 35.5-50.5 11.5-38.833 11.5-59.5v-242c0-16.667.333008-32 1-46s1.66699-27.333 3-40h-80c-2 24-3 48-3 72h-2c-20-30.667-43.667-52.334-71-65.001s-59-19-95-19c-22 0-43 3-63 9s-37.5 15-52.5 27-26.833 26.833-35.5 44.5-13 38.167-13 61.5c0 30.667 6.83301 56.334 20.5 77.001s32.334 37.5 56.001 50.5 51.334 22.333 83.001 28 65.5 8.5 101.5 8.5h66v20c0 12-2.33301 24-7 36s-11.667 22.833-21 32.5-21 17.334-35 23.001-30.667 8.5-50 8.5c-17.333 0-32.5-1.66699-45.5-5s-24.833-7.5-35.5-12.5-20.334-10.833-29.001-17.5l-25-19zM324.001 228c-21.333 0-43.168-1.16504-65.501-3.49805s-42.666-6.83301-60.999-13.5-33.333-16-45-28-17.5-27.333-17.5-46c0-27.333 9.16699-47 27.5-59s43.166-18 74.499-18c24.667 0 45.667 4.16699 63 12.5s31.333 19.166 42 32.499 18.334 28.166 23.001 44.499 7 32.5 7 48.5v30h-48zM91.999 576.002c2 12.667 5.66699 25.333 11 38s12.166 23.834 20.499 33.501 18.333 17.5 30 23.5 24.834 9 39.501 9c15.333 0 29.833-2.5 43.5-7.5l40.5-15.5c10-4 18.833-7.83301 26.5-11.5s16.834-5.5 27.501-5.5c13.333 0 24 4.33301 32 13s13.667 19 17 31h48c-2-12.667-5.33301-25.167-10-37.5s-10.667-23.5-18-33.5-16.5-18-27.5-24-23.833-9-38.5-9c-14 0-27.833 2.16699-41.5 6.5s-26.834 9.16602-39.501 14.499l-32 12.5c-11.333 4.33301-22.666 6.5-33.999 6.5-12.667 0-22.834-4.5-30.501-13.5s-13.167-19.167-16.5-30.5h-48z" glyph-name="atilde" horiz-adv-x="519" unicode="&#xe3;"/><glyph d="M70 416c25.333 23.333 54.667 40.833 88 52.5s66.666 17.5 99.999 17.5c34.667 0 64.5-4.33301 89.5-13s45.5-20.334 61.5-35.001 27.833-31.5 35.5-50.5 11.5-38.833 11.5-59.5v-242c0-16.667.333008-32 1-46s1.66699-27.333 3-40h-80c-2 24-3 48-3 72h-2c-20-30.667-43.667-52.334-71-65.001s-59-19-95-19c-22 0-43 3-63 9s-37.5 15-52.5 27-26.833 26.833-35.5 44.5-13 38.167-13 61.5c0 30.667 6.83301 56.334 20.5 77.001s32.334 37.5 56.001 50.5 51.334 22.333 83.001 28 65.5 8.5 101.5 8.5h66v20c0 12-2.33301 24-7 36s-11.667 22.833-21 32.5-21 17.334-35 23.001-30.667 8.5-50 8.5c-17.333 0-32.5-1.66699-45.5-5s-24.833-7.5-35.5-12.5-20.334-10.833-29.001-17.5l-25-19zM324.001 228c-21.333 0-43.168-1.16504-65.501-3.49805s-42.666-6.83301-60.999-13.5-33.333-16-45-28-17.5-27.333-17.5-46c0-27.333 9.16699-47 27.5-59s43.166-18 74.499-18c24.667 0 45.667 4.16699 63 12.5s31.333 19.166 42 32.499 18.334 28.166 23.001 44.499 7 32.5 7 48.5v30h-48zM157.999 714.002c15.333 0 29.5-5.33301 42.5-16s19.5-24.334 19.5-41.001c0-18-5.83301-33-17.5-45s-26.5-18-44.5-18-32.833 6-44.5 18-17.5 27-17.5 45c0 16.667 6.5 30.334 19.5 41.001s27.167 16 42.5 16zM361.999 714.002c15.333 0 29.5-5.33301 42.5-16s19.5-24.334 19.5-41.001c0-18-5.83301-33-17.5-45s-26.5-18-44.5-18-32.833 6-44.5 18-17.5 27-17.5 45c0 16.667 6.5 30.334 19.5 41.001s27.167 16 42.5 16z" glyph-name="adieresis" horiz-adv-x="519" unicode="&#xe4;"/><glyph d="M70 416c25.333 23.333 54.667 40.833 88 52.5s66.666 17.5 99.999 17.5c34.667 0 64.5-4.33301 89.5-13s45.5-20.334 61.5-35.001 27.833-31.5 35.5-50.5 11.5-38.833 11.5-59.5v-242c0-16.667.333008-32 1-46s1.66699-27.333 3-40h-80c-2 24-3 48-3 72h-2c-20-30.667-43.667-52.334-71-65.001s-59-19-95-19c-22 0-43 3-63 9s-37.5 15-52.5 27-26.833 26.833-35.5 44.5-13 38.167-13 61.5c0 30.667 6.83301 56.334 20.5 77.001s32.334 37.5 56.001 50.5 51.334 22.333 83.001 28 65.5 8.5 101.5 8.5h66v20c0 12-2.33301 24-7 36s-11.667 22.833-21 32.5-21 17.334-35 23.001-30.667 8.5-50 8.5c-17.333 0-32.5-1.66699-45.5-5s-24.833-7.5-35.5-12.5-20.334-10.833-29.001-17.5l-25-19zM324.001 228c-21.333 0-43.168-1.16504-65.501-3.49805s-42.666-6.83301-60.999-13.5-33.333-16-45-28-17.5-27.333-17.5-46c0-27.333 9.16699-47 27.5-59s43.166-18 74.499-18c24.667 0 45.667 4.16699 63 12.5s31.333 19.166 42 32.499 18.334 28.166 23.001 44.499 7 32.5 7 48.5v30h-48zM157.999 651.002c0 14 2.83301 27 8.5 39s13.167 22.5 22.5 31.5 20.166 16 32.499 21 25.166 7.5 38.499 7.5c14 0 27.167-2.5 39.5-7.5s23.166-12 32.499-21 16.666-19.333 21.999-31 8-24.5 8-38.5-2.66699-27-8-39-12.666-22.5-21.999-31.5-20.166-16-32.499-21-25.5-7.5-39.5-7.5c-13.333 0-26.166 2.5-38.499 7.5s-23.166 12-32.499 21-16.833 19.333-22.5 31-8.5 24.5-8.5 38.5zM319.999 651.002c0 16.667-5.99805 30.334-17.998 41.001s-26 16-42 16-30-5.33301-42-16-18-24.334-18-41.001c0-16 6.16699-29.333 18.5-40s26.166-16 41.499-16 29.166 5.33301 41.499 16 18.5 24 18.5 40z" glyph-name="aring" horiz-adv-x="519" unicode="&#xe5;"/><glyph d="M813 204l-353.003.00097656c0-19.333 3.16699-37.666 9.5-54.999s15.666-32.5 27.999-45.5 27.333-23.5 45-31.5 37.834-12 60.501-12c28.667 0 53.334 7.16699 74.001 21.5s37 32.166 49 53.499l73-55c-28-32-57.167-56.333-87.5-73s-67.166-25-110.499-25c-38 0-73 7.16699-105 21.5s-58.667 39.5-80 75.5c-22-30-48.833-53.667-80.5-71s-69.5-26-113.5-26c-32 0-59.5 4.5-82.5 13.5s-42 20.667-57 35-26 30.666-33 48.999-10.5 36.833-10.5 55.5c0 28 5.83301 51.167 17.5 69.5s26.834 32.666 45.501 42.999 39.834 17.666 63.501 21.999 47.167 6.5 70.5 6.5h140v15c0 34-10 63-30 87s-49.667 36-89 36c-28 0-52-4.66699-72-14s-40.667-22.666-62-39.999l-56 57c25.333 22.667 54.666 39.834 87.999 51.501s67 17.5 101 17.5c32.667 0 64.5-5.66699 95.5-17s55.833-31 74.5-59c8 8.66699 17 17.5 27 26.5s21.667 17.167 35 24.5 28.5 13.333 45.5 18 36.5 7 58.5 7c45.333 0 82.333-8.66699 111-26s51.167-38.5 67.5-63.5 27.5-51.333 33.5-79 9-51.5 9-71.5v-42zM233.997 204.001c-34.667 0-59.832-5.66992-75.499-17.0029s-23.5-28.666-23.5-51.999 9.66699-42.666 29-57.999 42.666-23 69.999-23c18.667 0 36.5 3.16699 53.5 9.5s32 15.333 45 27 23.5 25.834 31.5 42.501 12 35.667 12 57v14h-142zM716.999 275.998c-.666992 18-3.33203 35-7.99902 51s-12 30-22 42-22.833 21.5-38.5 28.5-34.834 10.5-57.501 10.5c-21.333 0-40-3.5-56-10.5s-29.667-16.5-41-28.5-19.833-26-25.5-42-8.5-33-8.5-51h257z" glyph-name="ae" horiz-adv-x="852" unicode="&#xe6;"/><glyph d="M407 348c-16.667 17.333-34.1699 30.499-52.5029 39.499s-40.166 13.5-65.499 13.5c-24.667 0-46.167-4.5-64.5-13.5s-33.666-21.333-45.999-37-21.666-33.667-27.999-54-9.5-41.5-9.5-63.5 3.66699-42.833 11-62.5 17.666-36.834 30.999-51.501 29.333-26.167 48-34.5 39.667-12.5 63-12.5c25.333 0 47 4.5 65 13.5s34.667 22.167 50 39.5l64-64c-22.667-25.333-48.667-43.5-78-54.5s-60.666-16.833-93.999-17.5l-36-50h29c11.333 0 22.5-1.33301 33.5-4s20.833-7 29.5-13 15.667-13.5 21-22.5 8-19.833 8-32.5c0-18-3.83301-33-11.5-45s-17.5-21.667-29.5-29-25.5-12.666-40.5-15.999-29.5-5-43.5-5c-18 0-35.833 1.83301-53.5 5.5s-34.834 9.5-51.501 17.5l19 40c24.667-10 50.667-15 78-15 6 0 12.5.666992 19.5 2s13.667 3.5 20 6.5 11.5 7.16699 15.5 12.5 6 12.333 6 21c0 12.667-3.16699 22-9.5 28s-14.166 9.83301-23.499 11.5-19.5 1.66699-30.5 0-21.167-3.83398-30.5-6.50098l-21 18 55 79c-31.333 4-59.833 12.667-85.5 26s-47.667 30.5-66 51.5-32.5 45.5-42.5 73.5-15 58.667-15 92c0 36.667 6 70.334 18 101.001s28.833 57 50.5 79 47.667 39.167 78 51.5 64.166 18.5 101.499 18.5c34.667 0 67.834-6.16699 99.501-18.5s59.167-31.166 82.5-56.499z" glyph-name="ccedilla" horiz-adv-x="482" unicode="&#xe7;"/><glyph d="M136 204c0-20.667 4.49902-39.4932 13.499-56.4932s20.833-31.5 35.5-43.5 31.667-21.333 51-28 39.333-10 60-10c28 0 52.333 6.5 73 19.5s39.667 30.167 57 51.5l68-52c-50-64.667-120-97-210-97-37.333 0-71.166 6.33301-101.499 19s-56 30.167-77 52.5-37.167 48.666-48.5 78.999-17 63.166-17 98.499 6.16699 68.166 18.5 98.499 29.333 56.666 51 78.999 47.5 39.833 77.5 52.5 62.667 19 98 19c42 0 77.5-7.33301 106.5-22s52.833-33.834 71.5-57.501 32.167-50.334 40.5-80.001 12.5-59.834 12.5-90.501v-32h-380zM419.999 276.007c-.666992 20-3.83301 38.3311-9.5 54.998s-14.167 31.167-25.5 43.5-25.5 22-42.5 29-36.833 10.5-59.5 10.5c-22 0-42.167-4.16699-60.5-12.5s-33.833-19.166-46.5-32.499-22.5-28.166-29.5-44.499-10.5-32.5-10.5-48.5h284zM344 564.005h-83l-149 144h128z" glyph-name="egrave" unicode="&#xe8;"/><glyph d="M136 204c0-20.667 4.49902-39.4932 13.499-56.4932s20.833-31.5 35.5-43.5 31.667-21.333 51-28 39.333-10 60-10c28 0 52.333 6.5 73 19.5s39.667 30.167 57 51.5l68-52c-50-64.667-120-97-210-97-37.333 0-71.166 6.33301-101.499 19s-56 30.167-77 52.5-37.167 48.666-48.5 78.999-17 63.166-17 98.499 6.16699 68.166 18.5 98.499 29.333 56.666 51 78.999 47.5 39.833 77.5 52.5 62.667 19 98 19c42 0 77.5-7.33301 106.5-22s52.833-33.834 71.5-57.501 32.167-50.334 40.5-80.001 12.5-59.834 12.5-90.501v-32h-380zM419.999 276.007c-.666992 20-3.83301 38.3311-9.5 54.998s-14.167 31.167-25.5 43.5-25.5 22-42.5 29-36.833 10.5-59.5 10.5c-22 0-42.167-4.16699-60.5-12.5s-33.833-19.166-46.5-32.499-22.5-28.166-29.5-44.499-10.5-32.5-10.5-48.5h284zM316 708.005h128l-149-144h-83z" glyph-name="eacute" unicode="&#xe9;"/><glyph d="M136 204c0-20.667 4.49902-39.4932 13.499-56.4932s20.833-31.5 35.5-43.5 31.667-21.333 51-28 39.333-10 60-10c28 0 52.333 6.5 73 19.5s39.667 30.167 57 51.5l68-52c-50-64.667-120-97-210-97-37.333 0-71.166 6.33301-101.499 19s-56 30.167-77 52.5-37.167 48.666-48.5 78.999-17 63.166-17 98.499 6.16699 68.166 18.5 98.499 29.333 56.666 51 78.999 47.5 39.833 77.5 52.5 62.667 19 98 19c42 0 77.5-7.33301 106.5-22s52.833-33.834 71.5-57.501 32.167-50.334 40.5-80.001 12.5-59.834 12.5-90.501v-32h-380zM419.999 276.007c-.666992 20-3.83301 38.3311-9.5 54.998s-14.167 31.167-25.5 43.5-25.5 22-42.5 29-36.833 10.5-59.5 10.5c-22 0-42.167-4.16699-60.5-12.5s-33.833-19.166-46.5-32.499-22.5-28.166-29.5-44.499-10.5-32.5-10.5-48.5h284zM352 564.005l-74 96-74-96h-91l112 144h106l112-144h-91z" glyph-name="ecircumflex" unicode="&#xea;"/><glyph d="M136 204c0-20.667 4.49902-39.4932 13.499-56.4932s20.833-31.5 35.5-43.5 31.667-21.333 51-28 39.333-10 60-10c28 0 52.333 6.5 73 19.5s39.667 30.167 57 51.5l68-52c-50-64.667-120-97-210-97-37.333 0-71.166 6.33301-101.499 19s-56 30.167-77 52.5-37.167 48.666-48.5 78.999-17 63.166-17 98.499 6.16699 68.166 18.5 98.499 29.333 56.666 51 78.999 47.5 39.833 77.5 52.5 62.667 19 98 19c42 0 77.5-7.33301 106.5-22s52.833-33.834 71.5-57.501 32.167-50.334 40.5-80.001 12.5-59.834 12.5-90.501v-32h-380zM419.999 276.007c-.666992 20-3.83301 38.3311-9.5 54.998s-14.167 31.167-25.5 43.5-25.5 22-42.5 29-36.833 10.5-59.5 10.5c-22 0-42.167-4.16699-60.5-12.5s-33.833-19.166-46.5-32.499-22.5-28.166-29.5-44.499-10.5-32.5-10.5-48.5h284zM176 714.005c15.333 0 29.5-5.33301 42.5-16s19.5-24.334 19.5-41.001c0-18-5.83301-33-17.5-45s-26.5-18-44.5-18-32.833 6-44.5 18-17.5 27-17.5 45c0 16.667 6.5 30.334 19.5 41.001s27.167 16 42.5 16zM380 714.005c15.333 0 29.5-5.33301 42.5-16s19.5-24.334 19.5-41.001c0-18-5.83301-33-17.5-45s-26.5-18-44.5-18-32.833 6-44.5 18-17.5 27-17.5 45c0 16.667 6.5 30.334 19.5 41.001s27.167 16 42.5 16z" glyph-name="edieresis" unicode="&#xeb;"/><glyph d="M75 474h90v-474h-90v474zM186 564h-83l-149 144h128z" glyph-name="igrave" horiz-adv-x="240" unicode="&#xec;"/><glyph d="M75 474h90v-474h-90v474zM158 708h128l-149-144h-83z" glyph-name="iacute" horiz-adv-x="240" unicode="&#xed;"/><glyph d="M75 474h90v-474h-90v474zM194 564l-74 96-74-96h-91l112 144h106l112-144h-91z" glyph-name="icircumflex" horiz-adv-x="240" unicode="&#xee;"/><glyph d="M75 474h90v-474h-90v474zM18 714c15.333 0 29.5-5.33301 42.5-16s19.5-24.334 19.5-41.001c0-18-5.83301-33-17.5-45s-26.5-18-44.5-18-32.833 6-44.5 18-17.5 27-17.5 45c0 16.667 6.5 30.334 19.5 41.001s27.167 16 42.5 16zM222 714c15.333 0 29.5-5.33301 42.5-16s19.5-24.334 19.5-41.001c0-18-5.83301-33-17.5-45s-26.5-18-44.5-18-32.833 6-44.5 18-17.5 27-17.5 45c0 16.667 6.5 30.334 19.5 41.001s27.167 16 42.5 16z" glyph-name="idieresis" horiz-adv-x="240" unicode="&#xef;"/><glyph d="M475 712l-111.999-54.999c26-27.333 50.167-55.666 72.5-84.999s42-60 59-92 30.333-65.5 40-100.5 14.5-71.833 14.5-110.5c0-42-5.66699-80.333-17-115s-27.833-64.334-49.5-89.001-48-43.667-79-57-66.5-20-106.5-20c-35.333 0-68.333 6.5-99 19.5s-57.334 30.667-80.001 53-40.5 48.666-53.5 78.999-19.5 62.833-19.5 97.5 6.5 67 19.5 97 30.833 56.333 53.5 79 49.334 40.5 80.001 53.5 63.667 19.5 99 19.5c22 0 44.333-3.66699 67-11s42-20.333 58-39l2 2c-18.667 33.333-40.334 64.833-65.001 94.5s-51 58.167-79 85.5l-107-52-47 46 106 53-85 71 79 46 89-78 108 52zM141.001 237.001c0-24 3.66699-46.167 11-66.5s17.666-37.666 30.999-51.999 29.666-25.666 48.999-33.999 41-12.5 65-12.5 45.667 4.16699 65 12.5 35.666 19.666 48.999 33.999 23.666 31.666 30.999 51.999 11 42.5 11 66.5-3.66699 46.167-11 66.5-17.666 37.666-30.999 51.999-29.666 25.666-48.999 33.999-41 12.5-65 12.5-45.667-4.16699-65-12.5-35.666-19.666-48.999-33.999-23.666-31.666-30.999-51.999-11-42.5-11-66.5z" glyph-name="eth" horiz-adv-x="594" unicode="&#xf0;"/><glyph d="M68 474l90-.00097656v-73h2c11.333 25.333 31 45.833 59 61.5s60.333 23.5 97 23.5c22.667 0 44.5-3.5 65.5-10.5s39.333-17.833 55-32.5 28.167-33.5 37.5-56.5 14-50.167 14-81.5v-305h-90v280c0 22-3 40.833-9 56.5s-14 28.334-24 38.001-21.5 16.667-34.5 21-26.5 6.5-40.5 6.5c-18.667 0-36-3-52-9s-30-15.5-42-28.5-21.333-29.5-28-49.5-10-43.667-10-71v-244h-90v474zM110 575.999c2 12.667 5.66699 25.333 11 38s12.166 23.834 20.499 33.501 18.333 17.5 30 23.5 24.834 9 39.501 9c15.333 0 29.833-2.5 43.5-7.5l40.5-15.5c10-4 18.833-7.83301 26.5-11.5s16.834-5.5 27.501-5.5c13.333 0 24 4.33301 32 13s13.667 19 17 31h48c-2-12.667-5.33301-25.167-10-37.5s-10.667-23.5-18-33.5-16.5-18-27.5-24-23.833-9-38.5-9c-14 0-27.833 2.16699-41.5 6.5s-26.834 9.16602-39.501 14.499l-32 12.5c-11.333 4.33301-22.666 6.5-33.999 6.5-12.667 0-22.834-4.5-30.501-13.5s-13.167-19.167-16.5-30.5h-48z" glyph-name="ntilde" unicode="&#xf1;"/><glyph d="M141 237c0-24 3.66699-46.167 11-66.5s17.666-37.666 30.999-51.999 29.666-25.666 48.999-33.999 41-12.5 65-12.5 45.667 4.16699 65 12.5 35.666 19.666 48.999 33.999 23.666 31.666 30.999 51.999 11 42.5 11 66.5-3.66699 46.167-11 66.5-17.666 37.666-30.999 51.999-29.666 25.666-48.999 33.999-41 12.5-65 12.5-45.667-4.16699-65-12.5-35.666-19.666-48.999-33.999-23.666-31.666-30.999-51.999-11-42.5-11-66.5zM45 237c0 34.667 6.5 67 19.5 97s30.833 56.333 53.5 79 49.334 40.5 80.001 53.5 63.667 19.5 99 19.5 68.333-6.5 99-19.5 57.334-30.833 80.001-53.5 40.5-49 53.5-79 19.5-62.333 19.5-97-6.5-67.167-19.5-97.5-30.833-56.666-53.5-78.999-49.334-40-80.001-53-63.667-19.5-99-19.5-68.333 6.5-99 19.5-57.334 30.667-80.001 53-40.5 48.666-53.5 78.999-19.5 62.833-19.5 97.5zM363 564h-83l-149 144h128z" glyph-name="ograve" horiz-adv-x="594" unicode="&#xf2;"/><glyph d="M141 237c0-24 3.66699-46.167 11-66.5s17.666-37.666 30.999-51.999 29.666-25.666 48.999-33.999 41-12.5 65-12.5 45.667 4.16699 65 12.5 35.666 19.666 48.999 33.999 23.666 31.666 30.999 51.999 11 42.5 11 66.5-3.66699 46.167-11 66.5-17.666 37.666-30.999 51.999-29.666 25.666-48.999 33.999-41 12.5-65 12.5-45.667-4.16699-65-12.5-35.666-19.666-48.999-33.999-23.666-31.666-30.999-51.999-11-42.5-11-66.5zM45 237c0 34.667 6.5 67 19.5 97s30.833 56.333 53.5 79 49.334 40.5 80.001 53.5 63.667 19.5 99 19.5 68.333-6.5 99-19.5 57.334-30.833 80.001-53.5 40.5-49 53.5-79 19.5-62.333 19.5-97-6.5-67.167-19.5-97.5-30.833-56.666-53.5-78.999-49.334-40-80.001-53-63.667-19.5-99-19.5-68.333 6.5-99 19.5-57.334 30.667-80.001 53-40.5 48.666-53.5 78.999-19.5 62.833-19.5 97.5zM335 708h128l-149-144h-83z" glyph-name="oacute" horiz-adv-x="594" unicode="&#xf3;"/><glyph d="M141 237c0-24 3.66699-46.167 11-66.5s17.666-37.666 30.999-51.999 29.666-25.666 48.999-33.999 41-12.5 65-12.5 45.667 4.16699 65 12.5 35.666 19.666 48.999 33.999 23.666 31.666 30.999 51.999 11 42.5 11 66.5-3.66699 46.167-11 66.5-17.666 37.666-30.999 51.999-29.666 25.666-48.999 33.999-41 12.5-65 12.5-45.667-4.16699-65-12.5-35.666-19.666-48.999-33.999-23.666-31.666-30.999-51.999-11-42.5-11-66.5zM45 237c0 34.667 6.5 67 19.5 97s30.833 56.333 53.5 79 49.334 40.5 80.001 53.5 63.667 19.5 99 19.5 68.333-6.5 99-19.5 57.334-30.833 80.001-53.5 40.5-49 53.5-79 19.5-62.333 19.5-97-6.5-67.167-19.5-97.5-30.833-56.666-53.5-78.999-49.334-40-80.001-53-63.667-19.5-99-19.5-68.333 6.5-99 19.5-57.334 30.667-80.001 53-40.5 48.666-53.5 78.999-19.5 62.833-19.5 97.5zM371 564l-74 96-74-96h-91l112 144h106l112-144h-91z" glyph-name="ocircumflex" horiz-adv-x="594" unicode="&#xf4;"/><glyph d="M141 237c0-24 3.66699-46.167 11-66.5s17.666-37.666 30.999-51.999 29.666-25.666 48.999-33.999 41-12.5 65-12.5 45.667 4.16699 65 12.5 35.666 19.666 48.999 33.999 23.666 31.666 30.999 51.999 11 42.5 11 66.5-3.66699 46.167-11 66.5-17.666 37.666-30.999 51.999-29.666 25.666-48.999 33.999-41 12.5-65 12.5-45.667-4.16699-65-12.5-35.666-19.666-48.999-33.999-23.666-31.666-30.999-51.999-11-42.5-11-66.5zM45 237c0 34.667 6.5 67 19.5 97s30.833 56.333 53.5 79 49.334 40.5 80.001 53.5 63.667 19.5 99 19.5 68.333-6.5 99-19.5 57.334-30.833 80.001-53.5 40.5-49 53.5-79 19.5-62.333 19.5-97-6.5-67.167-19.5-97.5-30.833-56.666-53.5-78.999-49.334-40-80.001-53-63.667-19.5-99-19.5-68.333 6.5-99 19.5-57.334 30.667-80.001 53-40.5 48.666-53.5 78.999-19.5 62.833-19.5 97.5zM129 576c2 12.667 5.66699 25.333 11 38s12.166 23.834 20.499 33.501 18.333 17.5 30 23.5 24.834 9 39.501 9c15.333 0 29.833-2.5 43.5-7.5l40.5-15.5c10-4 18.833-7.83301 26.5-11.5s16.834-5.5 27.501-5.5c13.333 0 24 4.33301 32 13s13.667 19 17 31h48c-2-12.667-5.33301-25.167-10-37.5s-10.667-23.5-18-33.5-16.5-18-27.5-24-23.833-9-38.5-9c-14 0-27.833 2.16699-41.5 6.5s-26.834 9.16602-39.501 14.499l-32 12.5c-11.333 4.33301-22.666 6.5-33.999 6.5-12.667 0-22.834-4.5-30.501-13.5s-13.167-19.167-16.5-30.5h-48z" glyph-name="otilde" horiz-adv-x="594" unicode="&#xf5;"/><glyph d="M141 237c0-24 3.66699-46.167 11-66.5s17.666-37.666 30.999-51.999 29.666-25.666 48.999-33.999 41-12.5 65-12.5 45.667 4.16699 65 12.5 35.666 19.666 48.999 33.999 23.666 31.666 30.999 51.999 11 42.5 11 66.5-3.66699 46.167-11 66.5-17.666 37.666-30.999 51.999-29.666 25.666-48.999 33.999-41 12.5-65 12.5-45.667-4.16699-65-12.5-35.666-19.666-48.999-33.999-23.666-31.666-30.999-51.999-11-42.5-11-66.5zM45 237c0 34.667 6.5 67 19.5 97s30.833 56.333 53.5 79 49.334 40.5 80.001 53.5 63.667 19.5 99 19.5 68.333-6.5 99-19.5 57.334-30.833 80.001-53.5 40.5-49 53.5-79 19.5-62.333 19.5-97-6.5-67.167-19.5-97.5-30.833-56.666-53.5-78.999-49.334-40-80.001-53-63.667-19.5-99-19.5-68.333 6.5-99 19.5-57.334 30.667-80.001 53-40.5 48.666-53.5 78.999-19.5 62.833-19.5 97.5zM195 714c15.333 0 29.5-5.33301 42.5-16s19.5-24.334 19.5-41.001c0-18-5.83301-33-17.5-45s-26.5-18-44.5-18-32.833 6-44.5 18-17.5 27-17.5 45c0 16.667 6.5 30.334 19.5 41.001s27.167 16 42.5 16zM399 714c15.333 0 29.5-5.33301 42.5-16s19.5-24.334 19.5-41.001c0-18-5.83301-33-17.5-45s-26.5-18-44.5-18-32.833 6-44.5 18-17.5 27-17.5 45c0 16.667 6.5 30.334 19.5 41.001s27.167 16 42.5 16z" glyph-name="odieresis" horiz-adv-x="594" unicode="&#xf6;"/><glyph d="M600 341v-78h-534v78h534zM267 470c0 18 6.5 33.5 19.5 46.5s28.5 19.5 46.5 19.5 33.5-6.5 46.5-19.5 19.5-28.5 19.5-46.5-6.5-33.5-19.5-46.5-28.5-19.5-46.5-19.5-33.5 6.5-46.5 19.5-19.5 28.5-19.5 46.5zM267 134c0 18 6.5 33.5 19.5 46.5s28.5 19.5 46.5 19.5 33.5-6.5 46.5-19.5 19.5-28.5 19.5-46.5-6.5-33.5-19.5-46.5-28.5-19.5-46.5-19.5-33.5 6.5-46.5 19.5-19.5 28.5-19.5 46.5z" glyph-name="divide" horiz-adv-x="666" unicode="&#xf7;"/><glyph d="M399 367c-13.333 11.333-28.335 19.998-45.002 25.998s-35.667 9-57 9c-24 0-45.667-4.16699-65-12.5s-35.666-19.666-48.999-33.999-23.666-31.666-30.999-51.999-11-42.5-11-66.5c0-41.333 10-75.333 30-102zM40.998 3.99805l67 68c-19.333 21.333-34.666 46.166-45.999 74.499s-17 58.5-17 90.5c0 34.667 6.5 67 19.5 97s30.833 56.333 53.5 79 49.334 40.5 80.001 53.5 63.667 19.5 99 19.5c32 0 61.667-5.16699 89-15.5s51.666-24.5 72.999-42.5l75 75 36-36-75-76c17.333-21.333 30.666-45 39.999-71s14-53.667 14-83c0-34.667-6.5-67.167-19.5-97.5s-30.833-56.666-53.5-78.999-49.334-40-80.001-53-63.667-19.5-99-19.5c-28 0-54.667 4.33301-80 13s-48.666 20.667-69.999 36l-69-69zM207.998 98.998c24-18 53.6689-26.999 89.002-26.999 24 0 45.667 4.16699 65 12.5s35.666 19.666 48.999 33.999 23.666 31.666 30.999 51.999 11 42.5 11 66.5c0 34.667-7.33301 64.334-22 89.001z" glyph-name="oslash" horiz-adv-x="594" unicode="&#xf8;"/><glyph d="M488 0l-89.999.00097656v73h-2c-11.333-25.333-31-45.833-59-61.5s-60.333-23.5-97-23.5c-23.333 0-45.333 3.5-66 10.5s-38.834 17.833-54.501 32.5-28.167 33.5-37.5 56.5-14 50.167-14 81.5v305h90v-280c0-22 3-40.833 9-56.5s14-28.334 24-38.001 21.5-16.667 34.5-21 26.5-6.5 40.5-6.5c18.667 0 36 3 52 9s30 15.5 42 28.5 21.333 29.5 28 49.5 10 43.667 10 71v244h90v-474zM344.001 564.001h-83l-149 144h128z" glyph-name="ugrave" unicode="&#xf9;"/><glyph d="M488 0l-89.999.00097656v73h-2c-11.333-25.333-31-45.833-59-61.5s-60.333-23.5-97-23.5c-23.333 0-45.333 3.5-66 10.5s-38.834 17.833-54.501 32.5-28.167 33.5-37.5 56.5-14 50.167-14 81.5v305h90v-280c0-22 3-40.833 9-56.5s14-28.334 24-38.001 21.5-16.667 34.5-21 26.5-6.5 40.5-6.5c18.667 0 36 3 52 9s30 15.5 42 28.5 21.333 29.5 28 49.5 10 43.667 10 71v244h90v-474zM316.001 708.001h128l-149-144h-83z" glyph-name="uacute" unicode="&#xfa;"/><glyph d="M488 0l-89.999.00097656v73h-2c-11.333-25.333-31-45.833-59-61.5s-60.333-23.5-97-23.5c-23.333 0-45.333 3.5-66 10.5s-38.834 17.833-54.501 32.5-28.167 33.5-37.5 56.5-14 50.167-14 81.5v305h90v-280c0-22 3-40.833 9-56.5s14-28.334 24-38.001 21.5-16.667 34.5-21 26.5-6.5 40.5-6.5c18.667 0 36 3 52 9s30 15.5 42 28.5 21.333 29.5 28 49.5 10 43.667 10 71v244h90v-474zM352.001 564.001l-74 96-74-96h-91l112 144h106l112-144h-91z" glyph-name="ucircumflex" unicode="&#xfb;"/><glyph d="M488 0l-89.999.00097656v73h-2c-11.333-25.333-31-45.833-59-61.5s-60.333-23.5-97-23.5c-23.333 0-45.333 3.5-66 10.5s-38.834 17.833-54.501 32.5-28.167 33.5-37.5 56.5-14 50.167-14 81.5v305h90v-280c0-22 3-40.833 9-56.5s14-28.334 24-38.001 21.5-16.667 34.5-21 26.5-6.5 40.5-6.5c18.667 0 36 3 52 9s30 15.5 42 28.5 21.333 29.5 28 49.5 10 43.667 10 71v244h90v-474zM176.001 714.001c15.333 0 29.5-5.33301 42.5-16s19.5-24.334 19.5-41.001c0-18-5.83301-33-17.5-45s-26.5-18-44.5-18-32.833 6-44.5 18-17.5 27-17.5 45c0 16.667 6.5 30.334 19.5 41.001s27.167 16 42.5 16zM380.001 714.001c15.333 0 29.5-5.33301 42.5-16s19.5-24.334 19.5-41.001c0-18-5.83301-33-17.5-45s-26.5-18-44.5-18-32.833 6-44.5 18-17.5 27-17.5 45c0 16.667 6.5 30.334 19.5 41.001s27.167 16 42.5 16z" glyph-name="udieresis" unicode="&#xfc;"/><glyph d="M11 474h104l141-370h2l134 370h97l-225-576c-8-20.667-16.333-39.5-25-56.5s-19-31.5-31-43.5-26.5-21.333-43.5-28-37.833-10-62.5-10c-13.333 0-26.833.833008-40.5 2.5s-26.834 5.16699-39.501 10.5l11 82c18-7.33301 36-11 54-11 14 0 25.833 1.83301 35.5 5.5s18 9 25 16 12.833 15.167 17.5 24.5 9.33398 20 14.001 32l29 75zM288 708h128l-149-144h-83z" glyph-name="yacute" horiz-adv-x="500" unicode="&#xfd;"/></font>
</defs>
</svg>
